<?xml version="1.0" standalone="no"?>
<!DOCTYPE svg PUBLIC "-//W3C//DTD SVG 1.1//EN" "http://www.w3.org/Graphics/SVG/1.1/DTD/svg11.dtd" >
<svg xmlns="http://www.w3.org/2000/svg">
<metadata>
<json>
<![CDATA[
{
	"fontFamily": "icomoon",
	"fontURL": "http://zavoloklom.github.io/material-design-iconic-font/",
	"designerURL": "http://zavoloklom.github.io/",
	"license": "Attribution-ShareAlike 4.0 International license",
	"licenseURL": "http://creativecommons.org/licenses/by-sa/4.0/",
	"description": "Material Design Iconic Font is a full suite of material design icons (created and maintained by Google) for easy scalable vector graphics on websites.\nFont generated by IcoMoon.",
	"copyright": "CSS: Kupletsky Sergey, Icons: Google",
	"majorVersion": 1,
	"minorVersion": 0,
	"version": "Version 1.0",
	"fontId": "icomoon",
	"psName": "icomoon",
	"subFamily": "Regular",
	"fullName": "icomoon"
}
]]>
</json>
</metadata>
<defs>
<font id="icomoon" horiz-adv-x="1024">
<font-face units-per-em="1024" ascent="960" descent="-64" />
<missing-glyph horiz-adv-x="1024" />
<glyph unicode="&#x20;" horiz-adv-x="512" d="" />
<glyph unicode="&#xe900;" glyph-name="centauro" data-tags="centauro" d="M362.442 893.979c-125.305-44.463-222.316-140.126-269.474-262.737-22.905-59.284-26.947-95.663-22.905-176.505 8.084-123.958 48.505-211.537 138.779-295.074 88.926-80.842 168.421-113.179 282.947-114.526l94.316-1.347 8.084 207.495-47.158-8.084c-72.758-12.126-138.779 6.737-192.674 53.895-150.905 132.042-95.663 361.095 98.358 412.295 35.032 9.432 70.063 9.432 97.011 2.695l43.116-13.474v214.232h-90.274c-51.2-1.347-113.179-9.432-140.126-18.863zM619.789 798.316c0-98.358 1.347-103.747 40.421-137.432 57.937-48.505 80.842-99.705 80.842-180.547 0-76.8-39.074-160.337-90.274-194.021-28.295-18.863-30.989-30.989-30.989-121.263 0-68.716 5.389-101.053 16.168-101.053 37.726 0 134.737 60.632 185.937 115.874 71.411 78.147 109.137 164.379 117.221 266.779 8.084 99.705-8.084 167.074-66.021 264.084-44.463 72.758-152.253 161.684-222.316 181.895-29.642 8.084-30.989 5.389-30.989-94.316z" />
<glyph unicode="&#xe901;" glyph-name="moeda" data-tags="moeda" d="M885.312 659.688v-0.062c6.75 14.248 10.688 29.124 10.688 44.374v64c0 106-171.938 192-384 192s-384-86-384-192c0 5.25 0.75 10.376 1.562 15.5-79.312-35.126-129.562-86.376-129.562-143.5v-64c0-59.376 54-112.438 138.688-147.624v0c-6.75-14.252-10.688-29.126-10.688-44.376v-64c0-22.5 8.126-43.938 22.376-64-14.25-20.062-22.376-41.5-22.376-64v-64c0-106 171.938-192 384-192s384 86 384 192v64c0 22.876-8.438 44.688-23.062 65-0.124-0.124-0.25-0.312-0.376-0.438 10.75 15.25 19.188 31.124 21.876 47.938 79.312 35.188 129.562 86.376 129.562 143.5v64c0 59.374-54 112.5-138.688 147.688zM512 928c207.438 0 352-84.312 352-160 0-75.626-144.562-160-352-160s-352 84.374-352 160c0 75.688 144.562 160 352 160zM32 640c0 37.376 35.438 76.688 96 107.062v-43.062c0-106 171.938-192 384-192 31.688 0 62.312 2.126 91.75 5.75-58.688-22.562-133.25-37.75-219.75-37.75-207.438 0-352 84.374-352 160zM864 192c0-75.624-144.562-160-352-160s-352 84.376-352 160c0 12.562 5.376 25.312 12.938 37.938-0.062 0.062-0.188 0.188-0.25 0.312 64.438-60.812 192.188-102.25 339.312-102.25 147.312 0 274.438 41.75 338.75 102.688-0.062-0.062-0.062-0.062-0.124-0.124 7.874-12.814 13.374-25.752 13.374-38.564zM731.876 261.75c-58.752-22.626-133.314-37.75-219.876-37.75-207.438 0-352 84.376-352 160 0 10.876 3.75 21.876 9.438 32.75 31.376-10.562 66.062-18.876 103.126-24.438 47.748-78.874 194.124-136.312 367.436-136.312 31.812 0 62.562 2.124 92.124 5.812-0.062 0-0.124-0.062-0.248-0.062zM640 352c-82.124 0-153.75 13.5-211.126 34.188 180.438 10.626 322.938 83.062 337.562 174.312 43.562 19.312 78.44 43.376 100.876 70.75-0.062 0-0.062 0-0.062 0 77.5-31.5 124.75-76.5 124.75-119.25 0-75.624-144.562-160-352-160zM580.376 721.374c0 6.75-5.376 11.938-16.124 15.376-10.75 3.5-34.688 8-71.75 13.376-33.312 4.688-59.376 9.376-78.126 14s-34 11.126-45.688 19.376c-11.688 8.376-17.562 18.126-17.562 29.126 0 14.5 10.5 27.626 31.376 39.25 20.876 11.562 53.75 18.626 98.626 21.25v22.872h60.626v-22.876c67.75-3.376 111.626-19 131.562-47.126l-83.5-14c-16.312 19.25-41.44 28.876-75.562 28.876-17.126 0-30.876-2.126-41.188-6.5-10.376-4.25-15.562-9.5-15.562-15.626 0-6.25 5-11 15-14.376 9.938-3.312 31.376-7.376 64.126-12.376 36-5.376 64.25-10.438 84.688-15.25 20.5-4.75 36.812-11.376 49.062-19.812 12.188-8.438 18.31-18.312 18.31-29.562 0-17.376-12.624-31.75-37.81-43.312-25.188-11.562-61.562-18.376-109.126-20.438v-29.622h-60.626v29.5c-79.312 3.312-128.376 22.25-147.312 56.626l93.75 10c8.688-21.626 37.438-32.438 86.25-32.438 22.81 0 39.688 2.312 50.438 6.938s16.122 10.186 16.122 16.748z" />
<glyph unicode="&#xe902;" glyph-name="money2" data-tags="money2" d="M267.643 448.105c0-92.218 74.823-167.041 167.041-167.041s167.041 74.823 167.041 167.041-74.823 167.041-167.041 167.041-167.041-74.823-167.041-167.041zM449.354 548.078c0-10.060 0-10.27 10.060-11.737 7.755-1.258 15.090-3.563 22.216-6.707 3.982-1.677 5.449-4.401 4.192-8.593-1.886-6.288-3.563-12.366-5.449-18.653-1.886-5.868-3.773-6.707-9.222-3.982-11.108 5.449-23.055 7.755-35.42 6.916-3.353-0.21-6.497-0.629-9.431-1.886-10.689-4.611-12.366-16.557-3.353-23.683 4.611-3.773 9.851-6.288 15.3-8.593 9.431-3.982 19.072-7.755 28.085-12.575 28.713-15.929 36.468-51.768 16.138-76.29-7.336-8.803-16.767-14.881-27.875-17.815-4.821-1.258-6.916-3.773-6.707-8.803 0.21-4.821 0-9.851 0-14.881 0-4.401-2.305-6.707-6.497-6.916-5.24-0.21-10.689-0.21-15.929 0-4.611 0-6.916 2.725-6.916 7.336 0 3.563 0 7.126 0 10.899 0 7.964-0.419 8.383-7.964 9.431-9.851 1.467-19.492 3.773-28.294 8.174-7.126 3.353-7.755 5.24-5.659 12.575 1.467 5.449 2.934 10.899 4.821 16.348 1.886 6.288 3.773 7.126 9.431 3.982 9.851-5.24 20.54-7.964 31.438-9.431 7.126-0.838 14.042-0.21 20.54 2.725 12.366 5.449 14.252 19.701 3.773 28.085-3.563 2.934-7.545 5.030-11.737 6.916-10.689 4.821-22.007 8.383-32.067 14.462-16.557 9.851-27.037 23.474-25.779 43.594 1.467 22.635 14.252 36.887 35.001 44.432 8.593 3.144 8.593 2.934 8.593 11.946 0 2.934 0 6.078 0 9.012 0.21 6.707 1.258 7.964 7.964 8.174 2.096 0 4.192 0 6.288 0 14.462 0 14.462 0 14.462-14.462zM238.3 439.721c0-25.581-20.738-46.319-46.319-46.319s-46.319 20.738-46.319 46.319c0 25.581 20.738 46.319 46.319 46.319s46.319-20.738 46.319-46.319zM724.123 439.721c0-25.581-20.738-46.319-46.319-46.319s-46.319 20.738-46.319 46.319c0 25.581 20.738 46.319 46.319 46.319s46.319-20.738 46.319-46.319zM814.874 414.99c2.515 0.629 5.24 0.838 7.964 0.838h40.241c-7.755 3.144-14.252 8.803-18.444 16.348-6.707 11.946-6.288 26.408 1.048 37.935l34.163 54.912v119.255c0 42.127-34.163 76.29-76.29 76.29h-727.267c-42.127 0-76.29-34.163-76.29-76.29v-392.347c0-42.127 34.163-76.29 76.29-76.29h608.641c-0.838 3.353-1.467 6.916-1.467 10.689v54.493h-522.71c0.419 3.144 0.629 6.288 0.629 9.641 0 42.546-34.582 77.128-77.128 77.128-6.497 0-12.994-0.838-19.072-2.305v236.624c6.078-1.467 12.575-2.305 19.072-2.305 42.546 0 77.128 34.582 77.128 77.128 0 6.497-0.838 12.785-2.305 18.863h566.514c-0.838-4.611-1.258-9.431-1.258-14.252 0-42.546 34.582-77.128 77.128-77.128 4.611 0 9.222 0.419 13.623 1.258v-150.483h-0.21zM772.747 327.383h-49.043c-5.868 0-10.689-4.821-10.689-10.689v-130.363c0-5.868 4.821-10.689 10.689-10.689h49.043c5.868 0 10.689 4.821 10.689 10.689v130.363c0 6.078-4.821 10.689-10.689 10.689zM872.091 386.277h-49.043c-5.868 0-10.689-4.821-10.689-10.689v-189.467c0-5.868 4.821-10.689 10.689-10.689h49.043c5.868 0 10.689 4.821 10.689 10.689v189.467c0 5.868-4.821 10.689-10.689 10.689zM1022.784 454.602l-69.164 111.081c-3.144 5.030-10.479 5.030-13.623 0l-69.164-111.081c-3.353-5.24 0.419-12.156 6.707-12.156h33.953v-256.115c0-5.868 4.821-10.689 10.689-10.689h49.043c5.659 0 10.060 4.401 10.479 9.851v0 256.954h33.953c6.497 0 10.479 6.707 7.126 12.156z" />
<glyph unicode="&#xe903;" glyph-name="money1" data-tags="money1" d="M75.71 427.621c3.782-6.513 13.026-6.513 16.808 0l71.222 123.535c3.782 6.513-0.84 14.497-8.404 14.497h-38.867v76.264c0 49.372 40.128 89.5 89.5 89.5h93.912v64.709h-93.912c-84.878 0-153.999-69.121-153.999-153.999v-76.474h-39.078c-7.353 0-12.185-7.984-8.404-14.497l71.222-123.535zM438.963 141.472c0-57.436-46.561-103.997-103.997-103.997s-103.997 46.561-103.997 103.997c0 57.436 46.561 103.997 103.997 103.997s103.997-46.561 103.997-103.997zM186.639 141.472c0-19.261-15.614-34.876-34.876-34.876s-34.876 15.614-34.876 34.876c0 19.261 15.614 34.876 34.876 34.876s34.876-15.614 34.876-34.876zM553.044 141.472c0-19.261-15.614-34.876-34.876-34.876s-34.876 15.614-34.876 34.876c0 19.261 15.614 34.876 34.876 34.876s34.876-15.614 34.876-34.876zM609.349 346.945h-548.767c-31.724 0-57.566-25.842-57.566-57.566v-295.813c0-31.724 25.842-57.566 57.566-57.566h548.556c31.724 0 57.566 25.842 57.566 57.566v295.813c0.21 31.724-25.632 57.566-57.356 57.566zM617.753 53.023c-3.362 0.63-6.723 0.84-10.295 0.84-32.144 0-58.196-26.052-58.196-58.196 0-3.572 0.42-7.143 1.050-10.715h-427.332c1.050 4.622 1.681 9.244 1.681 14.286 0 32.144-26.052 58.196-58.196 58.196-5.042 0-9.874-0.63-14.497-1.891v178.58c4.622-1.261 9.454-1.891 14.497-1.891 32.144 0 58.196 26.052 58.196 58.196 0 2.521-0.21 4.832-0.42 7.143h425.861c-0.63-3.572-1.050-7.143-1.050-10.715 0-32.144 26.052-58.196 58.196-58.196 3.572 0 6.933 0.42 10.295 0.84v-176.479h0.21zM948.442 468.379c-3.782 6.513-13.026 6.513-16.808 0l-71.222-123.535c-3.782-6.513 0.84-14.497 8.404-14.497h39.078v-76.264c0-49.372-40.128-89.5-89.5-89.5h-94.122v-64.499h93.912c84.878 0 153.999 69.121 153.999 153.999v76.264h39.078c7.353 0 12.185 7.984 8.404 14.497l-71.222 123.535zM793.182 754.528c0-57.436-46.561-103.997-103.997-103.997s-103.997 46.561-103.997 103.997c0 57.436 46.561 103.997 103.997 103.997s103.997-46.561 103.997-103.997zM540.859 754.528c0-19.261-15.614-34.876-34.876-34.876s-34.876 15.614-34.876 34.876c0 19.261 15.614 34.876 34.876 34.876s34.876-15.614 34.876-34.876zM907.263 754.528c0-19.261-15.614-34.876-34.876-34.876s-34.876 15.614-34.876 34.876c0 19.261 15.614 34.876 34.876 34.876s34.876-15.614 34.876-34.876zM963.568 960h-548.767c-31.724 0-57.566-25.842-57.566-57.566v-295.813c0-31.724 25.842-57.566 57.566-57.566h548.556c31.724 0 57.566 25.842 57.566 57.566v296.023c0 31.724-25.632 57.356-57.356 57.356zM971.972 666.288c-3.362 0.63-6.723 0.84-10.295 0.84-32.144 0-58.196-26.052-58.196-58.196 0-3.572 0.42-7.143 1.050-10.715h-427.332c1.050 4.622 1.681 9.244 1.681 14.286 0 32.144-26.052 58.196-58.196 58.196-5.042 0-9.874-0.63-14.497-1.891v178.58c4.622-1.261 9.454-1.891 14.497-1.891 32.144 0 58.196 26.052 58.196 58.196 0 2.521-0.21 4.832-0.42 7.143h425.861c-0.63-3.572-1.050-7.143-1.050-10.715 0-32.144 26.052-58.196 58.196-58.196 3.572 0 6.933 0.42 10.295 0.84v-176.479h0.21z" />
<glyph unicode="&#xe904;" glyph-name="contract-list" data-tags="contract-list" d="M649.318 413.039c0 15.375-12.637 28.222-28.222 28.222h-473.878c-15.375 0-28.222-12.637-28.222-28.222s12.637-28.222 28.222-28.222h474.089c15.375 0 28.011 12.637 28.011 28.222zM623.624 553.729h-264.529c-15.375 0-28.222-12.637-28.222-28.222 0-15.375 12.637-28.222 28.222-28.222h264.529c15.375 0 28.222 12.637 28.222 28.222-0.211 15.585-12.847 28.222-28.222 28.222zM711.87 85.116c0-34.751-28.222-62.973-62.973-62.973h-529.48c-34.751 0-62.973 28.222-62.973 62.973v726.613c0 34.751 28.222 62.973 62.973 62.973h373.205v-91.406c0-65.922 53.496-119.417 119.417-119.417h99.83v-152.273c0.842 1.264 1.685 2.738 2.317 4.002 1.474 2.317 3.159 5.055 5.055 8.003 15.375 25.273 39.806 65.922 44.65 73.714 1.264 2.317 2.738 4.423 4.212 6.74v76.874c0 7.371-1.474 14.532-4.212 21.061-2.949 6.74-6.95 12.637-12.216 17.691l-203.662 195.87c-5.055 4.844-10.952 8.635-17.27 11.162-6.529 2.527-13.269 4.002-20.219 4.002h-391.107c-65.922 0-119.417-53.496-119.417-119.417v-726.613c0-65.922 53.496-119.417 119.417-119.417h529.48c65.922 0 119.417 53.496 119.417 119.417v139.425c-18.113-24.431-36.857-48.651-56.234-72.24v-66.764h-0.211zM197.976 745.807c-25.484-9.688-41.069-27.38-42.333-55.391-1.053-24.642 12.005-41.28 32.434-53.074 12.637-7.371 26.537-11.584 39.806-17.27 5.265-2.106 10.109-4.844 14.532-8.214 12.847-10.32 10.741-27.801-4.212-34.751-8.003-3.58-16.638-4.633-25.273-3.791-13.479 1.474-26.537 4.844-38.963 10.952-7.161 3.58-9.267 2.527-11.584-5.265-1.896-6.74-3.791-13.479-5.476-20.219-2.317-9.056-1.474-11.373 7.371-15.375 11.162-5.265 22.957-7.793 34.962-9.478 9.478-1.264 9.688-1.685 10.109-11.584 0.211-4.423 0.211-8.846 0.421-13.269 0.211-5.687 2.949-8.846 8.635-8.846 6.529 0 13.058 0 19.587 0.421 5.265 0.211 8.003 3.159 8.003 8.635 0 6.108 0.211 12.216-0.211 18.113-0.421 6.108 2.317 9.267 8.214 10.952 13.69 4.002 25.063 11.373 33.909 22.536 24.431 30.539 14.322 74.767-21.272 93.723-11.162 5.897-22.957 10.32-34.751 15.164-6.74 2.738-13.269 5.897-18.955 10.32-11.373 8.846-9.478 23.378 3.58 29.275 3.58 1.685 7.582 2.317 11.584 2.527 15.164 1.053 29.696-1.474 43.597-8.003 6.95-3.159 9.267-2.106 11.373 5.055 2.317 7.582 4.212 15.375 6.318 22.957 1.474 5.055-0.421 8.424-5.265 10.531-8.846 3.791-18.113 6.529-27.59 7.793-12.426 1.685-12.426 1.896-12.637 14.322-0.421 17.691-0.421 17.691-17.902 17.481-2.527 0-5.055 0-7.793-0.211-8.214-0.421-9.688-1.896-9.688-10.109 0-3.791 0-7.371 0.211-11.162-0.211-10.952-0.211-10.741-10.741-14.743zM596.665 298.256c4.844 10.109 9.899 20.219 14.953 30.328h-464.401c-15.375 0-28.222-12.637-28.222-28.222 0-15.375 12.637-28.222 28.222-28.222h437.232c3.791 8.635 8.003 17.27 12.216 26.116zM118.996 188.105v0c0-15.375 12.637-28.222 28.222-28.222h392.16c6.108 18.955 12.847 37.489 20.429 56.234h-412.59c-15.585 0-28.222-12.637-28.222-28.011zM1013.888 608.909v0l-16.007 9.267-25.905 14.953c4.212 9.688 8.003 19.587 10.952 29.696 0.842 3.37 1.896 6.529 2.527 9.899 4.633 22.957-3.37 38.753-26.327 52.443-19.798 11.794-35.383 10.531-53.285-4.212-12.216-10.109-22.114-22.325-31.381-34.962-33.698-45.914-62.341-95.197-92.248-143.427l-36.225-60.235c-39.174-66.343-76.031-133.95-109.518-203.452-22.114-45.703-42.965-92.038-57.708-140.9-1.474-6.74-3.37-13.69-4.002-20.64-0.842-8.003-3.791-17.902 4.844-22.957 8.424-4.844 15.796 1.896 22.536 6.74 18.113 13.058 33.277 29.275 47.809 45.914 70.976 81.086 131.422 169.543 189.551 260.106v0l45.703 73.293c19.587 33.487 40.016 66.343 59.393 99.83 3.58 6.318 7.371 12.847 10.952 19.166l24.010-13.9-117.101-201.556c-8.846-15.375-1.053-35.804 17.902-40.227 1.685-0.421 3.58 0.421 4.423 1.896l136.688 235.465c5.265 9.899 2.106 22.114-7.582 27.801z" />
<glyph unicode="&#xe905;" glyph-name="money3" data-tags="money3" d="M821.045 569.836c0 67.371-54.568 121.939-121.939 121.939s-121.939-54.568-121.939-121.939 54.568-121.939 121.939-121.939c67.371 0 121.939 54.568 121.939 121.939zM692.39 486.514c-3.358 0-5.037 1.889-5.037 5.247 0 2.728 0 5.247 0 7.975 0 5.877-0.21 6.086-5.877 6.926-7.136 1.049-14.062 2.728-20.778 5.877-5.037 2.519-5.667 3.778-4.198 9.235 1.049 3.988 2.099 7.975 3.358 11.963 1.469 4.617 2.728 5.247 6.926 2.938 7.136-3.778 14.901-5.877 22.877-6.926 5.247-0.63 10.284-0.21 15.111 1.889 9.025 3.988 10.284 14.272 2.728 20.568-2.519 2.099-5.457 3.778-8.605 5.037-7.766 3.358-16.161 6.086-23.506 10.494-11.963 7.136-19.729 17.21-18.889 31.692 1.049 16.58 10.284 26.864 25.605 32.531 6.296 2.309 6.296 2.099 6.296 8.815 0 2.309 0 4.407 0 6.716 0.21 5.037 1.049 5.877 5.877 5.877 1.469 0 3.148 0 4.617 0 10.494 0 10.494 0 10.494-10.494 0-7.346 0-7.346 7.346-8.605 5.667-0.84 11.124-2.519 16.371-4.827 2.938-1.259 3.988-3.358 3.148-6.296-1.259-4.617-2.519-9.025-3.988-13.642-1.469-4.198-2.728-4.827-6.716-2.938-8.185 3.988-16.79 5.667-25.815 5.037-2.309-0.21-4.617-0.42-6.926-1.469-7.766-3.358-9.025-11.963-2.519-17.42 3.358-2.728 7.136-4.617 11.124-6.296 6.926-2.938 13.852-5.667 20.358-9.235 20.988-11.543 26.655-37.778 11.753-55.828-5.247-6.506-12.173-10.914-20.358-13.012-3.568-1.049-5.037-2.728-5.037-6.506 0.21-3.568 0-7.136 0-10.704 0-3.148-1.679-5.037-4.827-5.037-3.148 0.21-7.136 0.21-10.914 0.42zM555.549 563.749c0-18.662-15.129-33.79-33.79-33.79s-33.79 15.129-33.79 33.79c0 18.662 15.129 33.79 33.79 33.79s33.79-15.129 33.79-33.79zM910.454 563.749c0-18.662-15.129-33.79-33.79-33.79s-33.79 15.129-33.79 33.79c0 18.662 15.129 33.79 33.79 33.79s33.79-15.129 33.79-33.79zM968.59 768.801h-531.203c-30.642 0-55.618-24.976-55.618-55.618v-185.533c8.185 0.42 16.371 0.63 24.766 0.63 7.766 0 15.321-0.21 22.877-0.63v125.298c4.407-1.049 9.025-1.679 13.852-1.679 31.062 0 56.457 25.185 56.457 56.457 0 4.827-0.63 9.445-1.679 13.852h413.671c-0.63-3.358-1.049-6.926-1.049-10.284 0-31.062 25.185-56.457 56.457-56.457 3.358 0 6.716 0.42 9.864 0.84v-171.051c-3.148 0.63-6.506 0.84-9.864 0.84-31.062 0-56.457-25.185-56.457-56.457 0-3.568 0.42-6.926 1.049-10.284h-296.559c0-1.259 0-2.519 0-3.778 0-0.63 0-1.049 0-1.679v-42.186h353.226c30.642 0 55.618 24.976 55.618 55.618v286.484c0.21 30.642-24.766 55.618-55.408 55.618zM56.667 497.008c30.642-11.543 71.149-17.84 113.964-17.84 22.667 0 44.704 1.889 64.853 5.247 11.124 8.395 25.395 16.371 43.655 23.087s39.457 11.963 62.124 15.321v30.432c0 0.42 0 0.84 0 1.259v0c0 0.21 0 0.63 0 0.84v71.359c0 0.42 0 0.84 0 1.259v0c0 0.21 0 0.63 0 0.84v71.359c0 0.42 0 0.84 0 1.259 0 16.58-9.864 40.087-56.667 57.717-30.642 11.753-71.149 18.050-113.964 18.050s-83.322-6.296-113.964-17.84c-46.803-17.42-56.667-40.926-56.667-57.717v-72.618c0-0.21 0-0.63 0-0.84v0-72.618c0-0.21 0-0.63 0-0.84v0-73.458c0-0.21 0-0.63 0-0.84v0-72.618c0-0.21 0-0.63 0-0.84v0-72.618c0-16.58 9.864-40.087 56.667-57.717 30.642-11.543 71.149-17.84 113.964-17.84 9.235 0 18.259 0.21 27.284 0.84v7.975c0 0.21 0 0.21 0 0.42s0 0.42 0 0.42v28.753c-8.815-0.63-18.050-1.049-27.284-1.049-38.408 0-74.297 5.457-100.742 15.321-26.235 9.864-32.321 19.729-32.321 22.247v23.716c5.457-2.938 11.963-5.667 19.099-8.395 30.642-11.543 71.149-17.84 113.964-17.84 9.235 0 18.259 0.21 27.284 0.84v9.025c0 0.21 0 0.21 0 0.42s0 0.42 0 0.42v28.753c-8.815-0.63-18.050-1.049-27.284-1.049-38.408 0-74.297 5.457-100.742 15.321-26.235 9.864-32.321 19.729-32.321 22.247v23.506c5.457-2.938 11.963-5.667 19.099-8.395 30.642-11.543 71.149-17.84 113.964-17.84 9.235 0 18.259 0.21 27.284 0.84v9.025c0 8.395 1.259 19.309 6.296 31.062-10.914-1.049-22.037-1.469-33.581-1.469-38.408 0-74.297 5.457-100.742 15.321-26.235 9.864-32.321 19.729-32.321 22.247v23.506c5.667-2.309 11.963-5.247 19.099-7.975zM69.89 724.096c26.655 9.864 62.544 15.321 100.742 15.321 38.408 0 74.297-5.457 100.742-15.321 25.395-9.445 31.692-18.889 32.111-22.037v-0.63c-0.42-3.148-6.716-12.593-32.111-22.037-26.655-9.864-62.544-15.321-100.742-15.321-38.408 0-74.297 5.457-100.742 15.321-26.235 9.864-32.321 19.729-32.321 22.247s6.086 12.803 32.321 22.457zM37.568 652.738c5.457-2.938 11.963-5.667 19.099-8.395 30.642-11.543 71.149-17.84 113.964-17.84s83.322 6.296 113.964 17.84c7.136 2.728 13.432 5.457 19.099 8.395v-23.716c-0.42-3.148-6.716-12.593-32.111-22.037-26.655-9.864-62.544-15.321-100.742-15.321-38.408 0-74.297 5.457-100.742 15.321-26.235 9.864-32.321 19.729-32.321 22.247v23.506h-0.21zM37.568 579.070c5.457-2.938 11.963-5.667 19.099-8.395 30.642-11.543 71.149-17.84 113.964-17.84s83.322 6.296 113.964 17.84c7.136 2.728 13.432 5.457 19.099 8.395v-23.716c-0.42-3.148-6.716-12.593-32.111-22.037-26.655-9.864-62.544-15.321-100.742-15.321-38.408 0-74.297 5.457-100.742 15.321-26.235 9.864-32.321 19.729-32.321 22.247v23.506h-0.21zM520.289 472.452c-30.642 11.543-71.149 17.84-113.964 17.84s-83.322-6.296-113.964-17.84c-46.803-17.42-56.667-40.926-56.667-57.717v-72.618c0-0.21 0-0.63 0-0.84v0-72.618c0-0.21 0-0.63 0-0.84v0-73.458c0-16.58 9.864-40.087 56.667-57.717 30.642-11.543 71.149-17.84 113.964-17.84s83.322 6.296 113.964 17.84c46.803 17.42 56.667 40.926 56.667 57.717v72.198c0 0.42 0 0.84 0 1.259v0c0 0.21 0 0.63 0 0.84v71.359c0 0.42 0 0.84 0 1.259v0c0 0.21 0 0.63 0 0.84v71.359c0 0.42 0 0.84 0 1.259 0.21 16.58-9.654 40.087-56.667 57.717zM305.583 436.982c26.655 9.864 62.544 15.321 100.742 15.321 38.408 0 74.297-5.457 100.742-15.321 25.395-9.445 31.902-18.889 32.111-22.037v-0.63c-0.42-3.148-6.716-12.593-32.111-22.037-26.655-9.864-62.544-15.321-100.742-15.321-38.408 0-74.297 5.457-100.742 15.321-26.235 9.864-32.321 19.729-32.321 22.247s5.877 12.803 32.321 22.457zM507.277 172.535c-26.655-9.864-62.544-15.321-100.742-15.321-38.408 0-74.297 5.457-100.742 15.321-26.235 9.864-32.321 19.729-32.321 22.247v23.506c5.457-2.938 11.963-5.667 19.099-8.395 30.642-11.543 71.149-17.84 113.964-17.84s83.322 6.296 113.964 17.84c7.136 2.728 13.432 5.457 19.099 8.395v-23.506c-0.21-2.519-6.086-12.383-32.321-22.247zM539.388 268.45v0-0.21c-0.42-3.148-6.716-12.593-32.111-22.037-26.655-9.864-62.544-15.321-100.742-15.321-38.408 0-74.297 5.457-100.742 15.321-26.235 9.864-32.321 19.729-32.321 22.247v23.506c5.457-2.938 11.963-5.667 19.099-8.395 30.642-11.543 71.149-17.84 113.964-17.84s83.322 6.296 113.964 17.84c7.136 2.728 13.432 5.457 19.099 8.395l-0.21-23.506zM539.388 342.117v0-0.21c-0.42-3.148-6.716-12.593-32.111-22.037-26.655-9.864-62.544-15.321-100.742-15.321-38.408 0-74.297 5.457-100.742 15.321-26.235 9.864-32.321 19.729-32.321 22.247v23.506c5.457-2.938 11.963-5.667 19.099-8.395 30.642-11.543 71.149-17.84 113.964-17.84s83.322 6.296 113.964 17.84c7.136 2.728 13.432 5.457 19.099 8.395l-0.21-23.506z" />
<glyph unicode="&#xe906;" glyph-name="money4" data-tags="money4" d="M807.783 390.205c-11.496 8.988-131.475 142.135-163.873 160.947v345.514c0 35.116-28.427 63.334-63.334 63.334h-326.284c-35.116 0-63.334-28.427-63.334-63.334v-604.91c0-35.116 28.427-63.334 63.334-63.334h142.135l-5.853 49.747c-1.881 1.672-3.135 2.717-5.017 4.389h-62.707c2.090 8.361 2.717 17.558 1.045 26.964-4.598 26.128-25.292 47.239-51.419 52.047-9.615 1.881-19.021 1.254-27.591-0.836v470.927c3.762-0.627 7.734-1.045 11.705-1.045 35.534 0 64.17 28.845 64.17 64.17 0 3.762-0.418 7.525-1.045 11.287h194.809c-0.627-3.762-1.045-7.525-1.045-11.287 0-35.534 28.636-64.17 64.17-64.17 3.971 0 7.943 0.418 11.705 1.045v-591.742c-22.156 16.304-46.821 67.305-46.821 67.305s-12.123 135.655-80.892 135.655c-1.881 0-3.553 0-5.435-0.209 0 0-52.047-4.389-8.988-153.213l19.23-165.337c0 0 21.529-89.671 80.892-151.75v-18.394c0-9.824 7.943-17.976 17.976-17.976h193.346c9.197 0 16.722 6.898 17.767 15.886 6.898 64.379 33.653 303.709 49.329 340.079 2.508 5.853 4.598 11.705 5.435 17.976 3.553 20.484 4.808 58.108-23.41 80.265zM462.896 792.155c0-21.241-17.219-38.46-38.46-38.46s-38.46 17.219-38.46 38.46c0 21.241 17.219 38.46 38.46 38.46s38.46-17.219 38.46-38.46zM278.539 589.822c0-66.26 46.403-121.651 108.483-135.655 1.881 3.553 3.762 6.689 6.062 10.033 20.484 29.89 48.284 35.325 57.69 36.161 3.762 0.418 7.525 0.627 11.287 0.627 13.377 0 31.562-2.508 50.374-12.541 26.964 25.292 43.895 61.453 43.895 101.376 0 76.711-62.289 139-139 139s-138.791-62.289-138.791-139zM334.139 602.154c8.361 0 8.57 0 9.824 8.361 1.045 6.48 2.926 12.541 5.435 18.603 1.463 3.344 3.762 4.598 7.107 3.553 5.226-1.463 10.242-2.926 15.468-4.598 4.808-1.463 5.435-3.135 3.344-7.734-4.598-9.406-6.48-19.021-5.853-29.472 0.209-2.717 0.418-5.435 1.672-7.734 3.971-8.988 13.795-10.242 19.857-2.717 3.135 3.762 5.226 8.152 7.107 12.75 3.344 7.943 6.48 15.886 10.451 23.201 13.168 23.829 43.059 30.308 63.543 13.377 7.316-6.062 12.332-14.004 14.841-23.201 1.045-3.971 3.135-5.853 7.316-5.644s8.152 0 12.332 0c3.762 0 5.644-1.881 5.644-5.435 0.209-4.389 0.209-8.779 0-13.168 0-3.971-2.299-5.644-6.062-5.644-2.926 0-6.062 0-8.988 0-6.689 0-6.898-0.209-7.943-6.689-1.254-8.152-3.135-16.095-6.689-23.62-2.926-5.853-4.389-6.48-10.451-4.808-4.598 1.254-9.197 2.508-13.586 3.971-5.226 1.672-5.853 3.135-3.344 7.943 4.389 8.152 6.689 16.931 7.943 26.128 0.836 5.853 0.209 11.705-2.299 17.14-4.389 10.242-16.304 11.914-23.41 3.135-2.508-2.926-4.18-6.271-5.644-9.824-3.971-8.988-6.898-18.394-11.914-26.755-8.152-13.795-19.439-22.365-36.161-21.32-18.812 1.045-30.726 11.914-36.997 29.054-2.508 7.107-2.508 7.107-10.033 7.316-2.508 0-5.017 0-7.525 0-5.644 0.209-6.689 1.045-6.689 6.689 0 1.672 0 3.553 0 5.226-0.209 11.705-0.209 11.705 11.705 11.914z" />
<glyph unicode="&#xe907;" glyph-name="susep" data-tags="susep" d="M274.863 903.411c-156.295-78.147-215.579-196.716-172.463-344.926 40.421-129.347 115.874-180.547 344.926-237.137 188.632-45.811 239.832-99.705 156.295-161.684-64.674-51.2-242.526-29.642-388.042 45.811-56.589 29.642-113.179 53.895-121.263 53.895s-13.474-59.284-13.474-132.042v-132.042l118.568-29.642c164.379-40.421 404.211-37.726 512 8.084 167.074 70.063 253.305 266.779 188.632 433.853-21.558 56.589-177.853 132.042-355.705 175.158-145.516 32.337-199.411 86.232-145.516 140.126 43.116 43.116 256 32.337 350.316-16.168 123.958-64.674 140.126-53.895 140.126 75.453 0 115.874 0 118.568-118.568 148.211-188.632 45.811-366.484 37.726-495.832-26.947z" />
<glyph unicode="&#xe908;" glyph-name="vip" data-tags="vip" d="M537.6 782.080c0-3.84 42.24-49.92 94.72-103.68l94.72-98.56-51.2-129.28c-28.16-71.68-72.96-188.16-99.84-258.56-28.16-70.4-43.52-119.040-34.56-107.52 20.48 26.88 257.28 328.96 332.8 423.68l60.16 78.080-24.32 39.68c-14.080 21.76-40.96 66.56-60.16 101.12l-34.56 60.16h-139.52c-75.52 0-138.24-2.56-138.24-5.12zM143.36 678.4l-55.040-97.28 188.16-239.36c103.68-131.84 195.84-248.32 206.080-258.56 8.96-8.96-3.84 30.72-26.88 89.6-24.32 60.16-71.68 177.92-104.96 262.4-32 84.48-72.96 183.040-88.32 217.6-15.36 35.84-32 76.8-37.12 93.44-5.12 15.36-12.8 28.16-17.92 28.16s-33.28-43.52-64-96z" />
<glyph unicode="&#xe909;" glyph-name="rieper" data-tags="rieper" d="M374.986 846.062c-7.211-15.865-14.423-72.113-14.423-124.034 0-85.093-2.885-95.189-25.961-87.977-14.423 5.769-38.941 0-54.806-11.538-25.961-18.749-27.403-40.383-27.403-308.642 0-301.431 7.211-334.603 64.901-334.603 27.403 0 353.352 229.318 386.524 271.144 20.192 27.403 23.076 98.073 2.885 111.054-24.518 15.865-15.865 31.73 41.825 70.67 62.017 43.268 89.42 92.304 77.882 137.014-10.096 37.499-364.89 304.315-405.273 304.315-17.307 0-37.499-12.98-46.152-27.403zM620.169 700.394c115.38-87.977 173.070-139.899 173.070-158.648 0-25.961-124.034-135.572-144.225-126.918-5.769 2.885-62.017 43.268-126.918 90.862l-116.823 86.535-1.442 119.707c0 96.631 4.327 118.265 21.634 118.265 12.98 0 100.958-59.132 194.704-129.803zM360.563 414.828c7.211-177.397 15.865-203.358 66.344-204.8 8.654 0 60.575 33.172 115.38 72.113 54.806 40.383 105.285 70.67 113.938 67.786 7.211-2.885 15.865-21.634 18.749-41.825 4.327-31.73-17.307-51.921-158.648-157.206-89.42-64.901-175.955-119.707-191.82-119.707-27.403-1.442-28.845 8.654-33.172 265.375-1.442 145.668 0 274.028 4.327 285.566 4.327 10.096 18.749 17.307 31.73 14.423 23.076-4.327 27.403-27.403 33.172-181.724zM559.594 432.135l60.575-46.152-89.42-66.344c-49.037-36.056-98.073-66.344-108.169-66.344-14.423 0-18.749 34.614-18.749 145.668v144.225l47.594-31.73c24.518-18.749 73.555-53.363 108.169-79.324z" />
<glyph unicode="&#xe90a;" glyph-name="coligacao" data-tags="coligacao" d="M543.165 897.67c-36.508-36.508-11.576-99.729 40.070-99.729 52.536 0 76.577 63.221 38.289 99.729-24.932 22.261-55.207 23.151-78.358 0zM633.099 790.817c-22.261-19.59-63.221-23.151-91.715-8.014-14.247 8.014-26.713 5.343-61.44-13.357-52.536-26.713-114.866-75.687-114.866-89.043 0-5.343 17.809-19.59 39.179-32.056 36.508-19.59 40.96-20.48 56.097-7.123 8.904 7.123 25.823 18.699 37.398 24.932 24.932 13.357 36.508 0.89 36.508-39.179 0-22.261 2.671-24.042 20.48-18.699 56.988 16.918 84.591 21.37 110.414 16.918 32.056-6.233 31.165-7.123 16.028 70.344-3.562 18.699-0.89 18.699 54.317 1.781l43.631-12.466 32.946 32.056c18.699 18.699 33.837 35.617 33.837 39.179 0 12.466-95.277 45.412-142.47 48.974-40.070 3.562-52.536 0.89-70.344-14.247zM316.995 619.854c-12.466-21.37-26.713-56.988-32.946-80.139-10.685-37.398-9.795-43.631 4.452-59.659 20.48-22.261 20.48-76.577 0.89-98.838-12.466-13.357-14.247-25.823-9.795-54.317 6.233-38.289 33.837-99.729 56.097-125.551 12.466-14.247 16.028-13.357 52.536 11.576l39.179 26.713-22.261 38.289c-32.946 56.988-30.275 67.673 17.809 67.673h39.179l-6.233 29.384c-6.233 32.056-7.123 60.55-0.89 99.729 3.562 25.823 2.671 26.713-38.289 29.384-41.85 2.671-41.85 2.671-32.056 26.713 6.233 13.357 18.699 35.617 27.603 48.974 9.795 14.247 16.028 25.823 14.247 26.713-47.193 31.165-80.139 50.755-82.81 50.755s-14.247-16.918-26.713-37.398zM184.32 472.042c-32.946-35.617-5.343-99.729 42.741-99.729 26.713 0 57.878 32.056 57.878 59.659 0 47.193-69.454 74.797-100.619 40.070zM537.823 204.021c-3.562-20.48-10.685-36.508-16.028-36.508s-24.932 12.466-43.631 27.603l-32.946 26.713-40.96-28.494-40.96-27.603 28.494-29.384c15.137-16.028 48.083-40.070 72.125-53.426l44.522-24.042 35.617 17.809c42.741 21.37 77.468 14.247 105.071-21.37 8.904-11.576 24.932-21.37 34.727-21.37 26.713 0 128.223 32.946 148.703 48.083 17.809 13.357 16.918 14.247-14.247 46.303l-32.946 32.056-45.412-11.576c-24.932-6.233-47.193-9.795-48.974-7.123-1.781 1.781-0.89 20.48 2.671 40.070l7.123 37.398-58.769 4.452c-32.056 2.671-67.673 7.123-78.358 10.685-17.809 5.343-20.48 2.671-25.823-30.275zM548.508 50.866c-43.631-33.837-20.48-98.838 36.508-99.729 26.713 0 56.097 30.275 56.097 57.878 0 19.59-37.398 60.55-56.097 60.55-7.123 0-23.151-8.014-36.508-18.699z" />
<glyph unicode="&#xe90b;" glyph-name="unimed" data-tags="unimed" d="M162.975 531.651l-132.687-177.397 174.513-14.423-27.403-36.056c-15.865-20.192-46.152-60.575-67.786-89.42l-40.383-54.806h229.318l66.344 86.535c37.499 47.594 67.786 89.42 67.786 93.746s-15.865 7.211-36.056 7.211c-20.192 0-36.056 2.885-36.056 7.211s25.961 43.268 57.69 85.093c31.73 41.825 57.69 80.766 57.69 85.093s-25.961 10.096-59.132 12.98l-57.69 4.327 57.69 77.882c33.172 43.268 59.132 80.766 59.132 83.651s-40.383 4.327-90.862 4.327h-90.862l-131.245-175.955zM546.614 625.397l59.132-83.651-57.69-4.327c-31.73-2.885-57.69-8.654-57.69-12.98s25.961-43.268 57.69-85.093c31.73-41.825 57.69-79.324 57.69-83.651s-17.307-8.654-37.499-11.538l-36.056-4.327 66.344-89.42 67.786-90.862h230.761l-40.383 53.363c-21.634 30.287-51.921 70.67-67.786 90.862l-27.403 36.056 174.513 14.423-132.687 177.397-131.245 175.955h-184.608l59.132-82.208z" />
<glyph unicode="&#xe90c;" glyph-name="xlsx" data-tags="xlsx" d="M908.049 593.72h-24.589v118.641c0 0.74-0.116 1.485-0.204 2.241-0.039 4.706-1.548 9.333-4.774 12.999l-197.441 225.532c-0.062 0.058-0.12 0.078-0.159 0.14-1.177 1.315-2.547 2.409-4.002 3.354-0.428 0.288-0.861 0.529-1.311 0.783-1.255 0.682-2.59 1.255-3.961 1.668-0.374 0.097-0.708 0.25-1.078 0.347-1.492 0.355-3.040 0.575-4.607 0.575h-485.217c-22.156 0-40.156-18.021-40.156-40.158v-326.111h-24.585c-31.695 0-57.396-25.691-57.396-57.398v-298.468c0-31.677 25.7-57.394 57.396-57.394h24.585v-204.316c0-22.139 18-40.156 40.156-40.156h662.587c22.137 0 40.156 18.017 40.156 40.156v204.314h24.589c31.686 0 57.39 25.706 57.39 57.394v298.459c0.002 31.716-25.685 57.398-57.379 57.398zM180.705 919.842h465.139v-205.45c0-11.094 8.996-20.079 20.079-20.079h177.372v-100.592h-662.589v326.12zM587.509 372.332c-39.452 13.744-65.195 35.569-65.195 70.118 0 40.524 33.823 71.524 89.862 71.524 26.765 0 46.509-5.629 60.589-11.977l-11.973-43.329c-9.508 4.568-26.419 11.275-49.675 11.275s-34.529-10.574-34.529-22.908c0-15.156 13.393-21.844 44.039-33.47 41.921-15.511 61.656-37.352 61.656-70.822 0-39.823-30.657-73.65-95.843-73.65-27.125 0-53.901 7.039-67.292 14.45l10.913 44.393c14.452-7.392 36.656-14.805 59.549-14.805 24.686 0 37.704 10.216 37.704 25.725 0.009 14.788-11.264 23.261-39.805 33.475zM496.632 317.725v-45.116h-148.362v237.515h53.931v-192.399h94.431zM175.999 272.609h-61.307l68.706 120.187-66.25 117.337h61.671l20.777-43.347c7.048-14.448 12.338-26.061 17.981-39.472h0.685c5.653 15.156 10.229 25.726 16.202 39.472l20.088 43.347h61.308l-66.95-115.916 70.484-121.588h-62.009l-21.506 42.996c-8.795 16.538-14.437 28.883-21.134 42.627h-0.7c-4.94-13.744-10.916-26.089-18.323-42.627l-19.724-43.017zM843.295-12.971h-662.589v193.441h662.587v-193.441zM843.657 272.609l-21.5 42.996c-8.806 16.553-14.442 28.883-21.14 42.628h-0.684c-4.942-13.746-10.941-26.076-18.353-42.628l-19.705-42.996h-61.325l68.706 120.187-66.246 117.337h61.669l20.803-43.347c7.041-14.448 12.313-26.061 17.963-39.472h0.704c5.627 15.156 10.195 25.726 16.194 39.472l20.081 43.347h61.323l-66.952-115.916 70.471-121.588-62.009-0.021z" />
<glyph unicode="&#xe90d;" glyph-name="docx" data-tags="docx" d="M908.039 593.72h-24.589v118.641c0 0.745-0.116 1.485-0.215 2.241-0.039 4.71-1.541 9.338-4.766 12.999l-197.428 225.536c-0.062 0.058-0.12 0.078-0.159 0.136-1.177 1.315-2.547 2.413-4.002 3.354-0.428 0.293-0.861 0.534-1.311 0.783-1.255 0.682-2.59 1.255-3.961 1.668-0.374 0.097-0.708 0.25-1.078 0.351-1.492 0.351-3.040 0.571-4.607 0.571h-485.217c-22.156 0-40.156-18.021-40.156-40.158v-326.111h-24.585c-31.695 0-57.396-25.691-57.396-57.392v-298.465c0-31.686 25.7-57.403 57.396-57.403h24.585v-204.316c0-22.139 18-40.156 40.156-40.156h662.587c22.137 0 40.156 18.017 40.156 40.156v204.314h24.589c31.686 0 57.39 25.706 57.39 57.394v298.465c0.002 31.701-25.702 57.392-57.388 57.392zM180.705 919.833h465.139v-205.45c0-11.094 8.996-20.079 20.079-20.079h177.372v-100.592h-662.589v326.12zM686.439 332.765c14.648 0 30.904 3.177 40.464 7.020l7.314-37.915c-8.905-4.437-28.965-9.243-55.082-9.243-74.234 0-112.438 46.186-112.438 107.336 0 73.259 52.236 114.028 117.216 114.028 25.148 0 44.272-5.112 52.872-9.56l-9.87-38.548c-9.874 4.157-23.56 7.962-40.774 7.962-38.55 0-68.473-23.241-68.473-71.020-0.011-42.961 25.471-70.060 68.771-70.060zM544.686 405.372c0-70.381-42.683-113.060-105.416-113.060-63.71 0-100.975 48.108-100.975 109.247 0 64.334 41.078 112.442 104.475 112.442 65.951 0 101.916-49.384 101.916-108.628zM126.475 296.763v210.86c17.84 2.861 41.086 4.436 65.61 4.436 40.77 0 67.199-7.314 87.881-22.927 22.309-16.553 36.335-42.995 36.335-80.889 0-41.076-14.973-69.44-35.681-86.949-22.619-18.785-57.015-27.717-99.068-27.717-25.14 0.009-42.978 1.61-55.076 3.186zM843.295-12.971h-662.589v193.441h662.587v-193.441zM880.107 295.823l-19.44 38.854c-7.962 14.963-13.058 26.128-19.108 38.54h-0.639c-4.46-12.431-9.861-23.577-16.549-38.54l-17.84-38.854h-55.422l62.106 108.617-59.865 106.055h55.747l18.785-39.19c6.374-13.034 11.137-23.558 16.237-35.657h0.626c5.097 13.693 9.254 23.244 14.648 35.657l18.155 39.19h55.437l-60.522-104.779 63.695-109.893h-56.051zM264.696 406.667c0.308 44.578-25.799 68.157-67.515 68.157-10.845 0-17.84-0.96-21.986-1.918v-140.445c4.157-0.951 10.843-0.951 16.896-0.951 43.953-0.334 72.604 23.861 72.604 75.157zM389.593 402.528c0-42.049 19.75-71.664 52.236-71.664 32.809 0 51.578 31.195 51.578 72.921 0 38.55-18.461 71.674-51.922 71.674-32.799-0.009-51.892-31.225-51.892-72.931z" />
<glyph unicode="&#xe90e;" glyph-name="xls" data-tags="xls" d="M908.049 593.72h-24.589v118.641c0 0.74-0.117 1.485-0.206 2.24-0.039 4.705-1.549 9.335-4.774 12.999l-197.441 225.532c-0.059 0.058-0.117 0.078-0.158 0.141-1.177 1.314-2.549 2.408-3.999 3.354-0.429 0.288-0.863 0.53-1.313 0.785-1.257 0.68-2.59 1.255-3.962 1.666-0.372 0.099-0.706 0.251-1.078 0.35-1.491 0.351-3.040 0.573-4.609 0.573h-485.215c-22.157 0-40.157-18.020-40.157-40.159v-326.112h-24.583c-31.696 0-57.396-25.689-57.396-57.396v-298.471c0-31.676 25.7-57.391 57.396-57.391h24.585v-204.313c0-22.136 18-40.159 40.157-40.159h662.587c22.136 0 40.157 18.020 40.157 40.159v204.313h24.589c31.687 0 57.393 25.706 57.393 57.391v298.462c-0.002 31.716-25.689 57.396-57.383 57.396zM180.706 919.841h465.136v-205.45c0-11.093 9-20.078 20.078-20.078h177.372v-100.593h-662.587v326.121zM631.283 301.235v-58.235h-191.587v306.686h69.642v-248.452h121.945zM138.039 243.010l88.735 155.158-85.554 151.519h79.631l26.844-55.957c9.108-18.647 15.936-33.68 23.22-50.966h0.898c7.299 19.575 13.202 33.226 20.932 50.966l25.942 55.957h79.176l-86.465-149.705 91.024-156.98h-80.092l-27.755 55.509c-11.368 21.393-18.658 37.312-27.299 55.058h-0.911c-6.379-17.755-14.098-33.685-23.652-55.058l-25.49-55.509-79.183 0.007zM843.294-12.971h-662.589v193.442h662.587v-193.442zM747.294 238.433c-35.020 0-69.616 9.117-86.891 18.665l14.088 57.333c18.665-9.548 47.333-19.117 76.921-19.117 31.863 0 48.686 13.198 48.686 33.217 0 19.117-14.559 30.038-51.421 43.235-50.96 17.755-84.184 45.961-84.184 90.572 0 52.334 43.685 92.368 116.059 92.368 34.568 0 60.059-7.301 78.256-15.472l-15.472-55.976c-12.283 5.923-34.135 14.564-64.156 14.564-30.028 0-44.587-13.642-44.587-29.584 0-19.567 17.273-28.221 56.872-43.239 54.147-20.021 79.637-48.218 79.637-91.452-0.024-51.43-39.601-95.116-123.807-95.116z" />
<glyph unicode="&#xe90f;" glyph-name="pdf" data-tags="pdf" d="M298.166 435.312c0 27.574-19.147 44.031-52.936 44.031-13.783 0-23.122-1.329-28.019-2.662v-88.544c5.789-1.314 12.906-1.764 22.666-1.764 36.050 0 58.289 18.236 58.289 48.939zM507.305 478.455c-15.142 0-24.907-1.333-30.711-2.668v-196.179c5.793-1.355 15.137-1.355 23.592-1.355 61.382-0.429 101.422 33.364 101.422 104.991 0.45 62.304-36.039 95.211-94.303 95.211zM908.038 593.72h-24.589v118.641c0 0.74-0.117 1.485-0.216 2.235-0.039 4.711-1.537 9.338-4.763 13.004l-197.432 225.532c-0.059 0.058-0.117 0.078-0.158 0.141-1.177 1.314-2.549 2.408-3.999 3.354-0.429 0.288-0.863 0.53-1.313 0.779-1.257 0.686-2.59 1.255-3.962 1.666-0.372 0.104-0.706 0.257-1.078 0.353-1.491 0.353-3.040 0.574-4.609 0.574h-485.215c-22.157 0-40.157-18.020-40.157-40.159v-326.112h-24.583c-31.696 0-57.396-25.689-57.396-57.396v-298.471c0-31.685 25.7-57.391 57.396-57.391h24.585v-204.313c0-22.136 18-40.159 40.157-40.159h662.587c22.136 0 40.157 18.020 40.157 40.159v204.313h24.589c31.687 0 57.393 25.706 57.393 57.391v298.462c-0.002 31.705-25.708 57.396-57.394 57.396zM180.706 919.834h465.136v-205.456c0-11.093 9-20.078 20.078-20.078h177.372v-100.593h-662.587v326.127zM673.665 385.492c0-57.402-20.902-96.981-49.861-121.461-31.551-26.245-79.607-38.696-138.31-38.696-35.137 0-60.044 2.225-76.969 4.441v294.513c24.91 3.995 57.406 6.221 91.662 6.221 56.911 0 93.844-10.24 122.774-32.025 31.127-23.137 50.705-60.053 50.705-112.993zM150.030 228.442v295.848c20.898 3.54 50.274 6.221 91.647 6.221 41.813 0 71.626-8.009 91.637-24.035 19.134-15.116 32.005-40.034 32.005-69.397 0-29.372-9.76-54.282-27.569-71.176-23.131-21.804-57.381-31.597-97.43-31.597-8.883 0-16.918 0.452-23.118 1.344v-107.215l-67.172 0.007zM843.294-12.971h-662.589v193.442h662.587v-193.442zM901.479 472.677h-115.244v-68.51h107.667v-55.167h-107.667v-120.56h-68.030v299.845h183.275v-55.608z" />
<glyph unicode="&#xe910;" glyph-name="handshake" data-tags="handshake" d="M691.425 735.444c-2.418 2.44-5.425 4.205-8.671 5.229l-195.536 61.395c-78.193 24.554-129.065-18.279-142.769-32.027-7.996-7.996-14.118-16.427-17.255-23.769l-87.104-204.883c-4.989-11.721-3.29-27.342 4.532-42.92 11.198-22.244 31.373-38.279 55.491-44.053 26.994-6.471 54.99 2.309 76.907 24.205 5.73 5.73 10.61 12.048 13.486 17.408l29.281 54.314c4.815 8.998 11.808 18.323 19.172 25.687 25.12 25.142 37.059 13.639 42.136 8.758 43.813-42.288 273.511-272.966 273.511-272.966 8.17-8.17 6.471-23.66-3.747-33.857-10.196-10.174-25.708-11.917-33.857-3.791l-64.532 64.511c-8.323 8.344-21.743 8.344-30.066 0-8.323-8.257-8.323-21.743 0-30.044l64.532-64.554c8.148-8.126 6.449-23.617-3.747-33.791-10.196-10.218-25.73-11.917-33.835-3.791l-64.554 64.511c-8.323 8.323-21.787 8.323-30.066 0-8.323-8.257-8.323-21.743 0-30.066l64.532-64.532c8.148-8.148 6.384-23.639-3.791-33.835-10.174-10.174-25.665-11.917-33.835-3.747l-64.532 64.511c-8.279 8.301-21.765 8.301-30.066 0-8.279-8.301-8.279-21.787 0-30.044l64.532-64.554c8.17-8.17 6.427-23.66-3.747-33.857-10.24-10.196-25.73-11.917-33.857-3.769l-78.563 78.628c11.22 16.863 8.17 41.33-8.475 58.040-18.649 18.628-47.343 20.349-63.944 3.704 16.602 16.623 14.968 45.273-3.726 63.944-18.693 18.649-47.321 20.371-63.922 3.769 16.602 16.602 14.924 45.229-3.791 63.879-18.649 18.693-47.277 20.392-63.922 3.791 16.645 16.602 14.924 45.229-3.747 63.944-17.473 17.473-43.508 19.848-60.437 6.536l-127.213 127.213c-8.301 8.323-21.787 8.323-30.088 0-8.279-8.279-8.279-21.765 0-30.088l126.886-126.864-37.626-37.626c-16.602-16.58-14.924-45.208 3.791-63.922 18.649-18.649 47.277-20.371 63.901-3.747-16.623-16.623-14.924-45.229 3.769-63.922 18.649-18.628 47.299-20.392 63.922-3.769-16.623-16.623-14.946-45.229 3.747-63.901 18.693-18.693 47.321-20.392 63.922-3.791-16.602-16.58-14.924-45.186 3.769-63.901 18.671-18.649 47.277-20.371 63.922-3.747l39.739 39.717 78.018-77.997c24.902-24.902 67.016-23.159 93.988 3.769 13.137 13.137 20.153 29.913 21.133 46.515 16.602 0.98 33.399 8.018 46.515 21.177 13.159 13.137 20.218 29.913 21.22 46.515 16.58 0.98 33.312 7.996 46.515 21.155 13.137 13.159 20.175 29.913 21.133 46.537 16.623 0.959 33.399 7.974 46.558 21.177 26.928 26.928 28.584 69.108 3.747 93.966l-32.898 32.92 135.078 135.056c8.301 8.279 8.301 21.765 0 30.066l-195.471 195.58zM1011.56 687.905l-172.137 172.137c-16.602 16.623-43.552 16.623-60.175 0l-60.175-60.131c-16.602-16.602-16.602-43.552 0-60.153l172.159-172.181c16.623-16.602 43.574-16.602 60.175 0l60.153 60.153c16.58 16.623 16.58 43.574 0 60.175zM921.21 600.235c-19.26 0-34.902 15.621-34.902 34.902s15.643 34.924 34.902 34.924c19.281 0 34.924-15.621 34.924-34.924-0.022-19.26-15.643-34.902-34.924-34.902z" />
<glyph unicode="&#xe911;" glyph-name="home" data-tags="home" d="M1022.8 381.6l-449.2 466.667c-16 16.667-38.4 26.133-61.467 26.133s-45.467-9.467-61.467-26.133l-449.467-466.667 61.467-59.2 107.867 112.133v-327.867c0-47.067 38.267-85.333 85.333-85.333h512c47.067 0 85.333 38.267 85.333 85.333v327.867l107.867-112.133 61.733 59.2zM768 106.667h-512v416.533l256 266 256-266v-416.533z" />
<glyph unicode="&#xe912;" glyph-name="home2" data-tags="home2" d="M1022.8 381.6l-449.2 466.667c-16.267 16.933-38.133 26.133-61.467 26.133 0 0 0 0 0 0-23.467 0-45.2-9.333-61.467-26.133l-449.333-466.667 61.467-59.2 107.867 112.133v-327.867c0-47.067 38.267-85.333 85.333-85.333h149.333c11.733 0 21.333 9.6 21.333 21.333v277.333h170.667v-277.333c0-11.733 9.6-21.333 21.333-21.333h149.333c47.067 0 85.333 38.267 85.333 85.333v327.867l107.867-112.133 61.6 59.2zM768 106.667h-128v234.667c0 11.733-9.6 21.333-21.333 21.333h-213.333c-11.733 0-21.333-9.6-21.333-21.333v-234.667h-128v416.4l256 266 256-265.867v-416.533z" />
<glyph unicode="&#xe913;" glyph-name="home3" data-tags="home3" d="M1022.8 381.6l-212.133 220.267v251.467c0 11.733-9.6 21.333-21.333 21.333h-128c-11.733 0-21.333-9.6-21.333-21.333v-74.133l-66.4 69.067c-16.267 16.933-38.133 26.133-61.467 26.133 0 0 0 0 0 0-23.467 0-45.2-9.333-61.467-26.133l-449.333-466.667 61.467-59.2 107.867 112.133v-327.867c0-47.067 38.267-85.333 85.333-85.333h149.333c11.733 0 21.333 9.6 21.333 21.333v277.333h170.667v-277.333c0-11.733 9.6-21.333 21.333-21.333h149.333c47.067 0 85.333 38.267 85.333 85.333v327.867l107.867-112.133 61.6 59.2zM682.667 832h85.333v-185.733l-85.333 88.667v97.067zM768 106.667h-128v234.667c0 11.733-9.6 21.333-21.333 21.333h-213.333c-11.733 0-21.333-9.6-21.333-21.333v-234.667h-128v416.4l256 266 256-265.867v-416.533z" />
<glyph unicode="&#xe914;" glyph-name="home4" data-tags="home4" d="M1022.8 381.6l-212.133 220.267v251.467c0 11.733-9.6 21.333-21.333 21.333h-128c-11.733 0-21.333-9.6-21.333-21.333v-74.133l-66.533 69.067c-16 16.667-38.4 26.133-61.467 26.133s-45.467-9.467-61.467-26.133l-449.333-466.667 61.467-59.2 107.867 112.133v-327.867c0-47.067 38.267-85.333 85.333-85.333h512c47.067 0 85.333 38.267 85.333 85.333v327.867l107.867-112.133 61.733 59.2zM682.667 832h85.333v-185.733l-85.333 88.667v97.067zM768 106.667h-512v416.533l256 266 256-266v-416.533z" />
<glyph unicode="&#xe915;" glyph-name="home-lock" data-tags="home-lock" d="M1022.8 381.6l-212.133 220.267v251.467c0 11.733-9.6 21.333-21.333 21.333h-128c-11.733 0-21.333-9.6-21.333-21.333v-74.133l-66.4 69.067c-16.267 16.933-38.133 26.133-61.467 26.133 0 0 0 0 0 0-23.467 0-45.2-9.333-61.467-26.133l-449.333-466.667 61.467-59.2 107.867 112.133v-327.867c0-47.067 38.267-85.333 85.333-85.333h512c47.067 0 85.333 38.267 85.333 85.333v327.867l107.867-112.133 61.6 59.2zM682.667 832h85.333v-185.733l-85.333 88.667v97.067zM768 106.667h-512v416.4l256 266 256-265.867v-416.533zM384 448v-42.667h-21.333c-11.733 0-21.333-9.6-21.333-21.333v-170.667c0-11.733 9.6-21.333 21.333-21.333h298.667c11.733 0 21.333 9.6 21.333 21.333v170.667c0 11.733-9.6 21.333-21.333 21.333h-21.333v42.667c0 70.533-57.467 128-128 128s-128-57.467-128-128zM640 234.667h-256v128h256v-128zM597.333 448v-42.667h-170.667v42.667c0 47.067 38.267 85.333 85.333 85.333s85.333-38.267 85.333-85.333z" />
<glyph unicode="&#xe916;" glyph-name="home-sleep" data-tags="home-sleep" d="M810.667 768c0 11.733-9.6 21.333-21.333 21.333h-128c-11.733 0-21.333-9.6-21.333-21.333v-74.133l-66.4 69.067c-16.267 16.933-38.133 26.133-61.467 26.133 0 0 0 0 0 0-23.467 0-45.2-9.333-61.467-26.133l-449.333-466.667 61.467-59.2 107.867 112.133v-327.867c0-47.067 38.267-85.333 85.333-85.333h512c47.067 0 85.333 38.267 85.333 85.333v327.867l107.867-112.133 61.467 59.2-212 220.267v251.467zM682.667 746.667h85.333v-185.733l-85.333 88.667v97.067zM768 21.333h-512v416.4l256 266 256-265.867v-416.533zM1017.733 923.6c6.133 6.133 7.867 15.333 4.667 23.2-3.333 8-11.067 13.2-19.733 13.2h-149.333v-42.667h97.867l-91.6-91.6c-6.133-6.133-7.867-15.333-4.667-23.2 3.333-8 11.067-13.2 19.733-13.2h149.333v42.667h-97.867l91.6 91.6zM384 362.667h183.2l-176.933-176.933c-6.133-6.133-7.867-15.333-4.667-23.2s11.067-13.2 19.733-13.2h234.667v42.667h-183.2l176.933 176.933c6.133 6.133 7.867 15.333 4.667 23.2s-11.067 13.2-19.733 13.2h-234.667v-42.667zM44.267 674.533c3.333-8 11.067-13.2 19.733-13.2h192v42.667h-140.533l134.267 134.267c6.133 6.133 7.867 15.333 4.667 23.2-3.333 8-11.067 13.2-19.733 13.2h-192v-42.667h140.533l-134.267-134.267c-6.133-6.133-8-15.2-4.667-23.2z" />
<glyph unicode="&#xe917;" glyph-name="home-smart" data-tags="home-smart" d="M1022.8 381.6l-212.133 220.267v251.467c0 11.733-9.6 21.333-21.333 21.333h-128c-11.733 0-21.333-9.6-21.333-21.333v-74.133l-66.4 69.067c-16.267 16.933-38.133 26.133-61.467 26.133 0 0 0 0 0 0-23.467 0-45.2-9.333-61.467-26.133l-449.333-466.667 61.467-59.2 107.867 112.133v-327.867c0-47.067 38.267-85.333 85.333-85.333h512c47.067 0 85.333 38.267 85.333 85.333v327.867l107.867-112.133 61.6 59.2zM682.667 832h85.333v-185.733l-85.333 88.667v97.067zM768 106.667h-512v416.4l256 266 256-265.867v-416.533zM602.533 282.533l15.067-15.067-30.133-30.133-15.067 15.067c-16.133 16-37.6 24.933-60.4 24.933s-44.267-8.933-60.267-24.933l-15.2-15.067-30.133 30.133 15.067 15.067c24.267 24.133 56.4 37.467 90.533 37.467s66.267-13.333 90.533-37.467zM512 405.333c-56.933 0-110.533-22.133-150.8-62.533l-15.067-15.067 30.133-30.133 15.067 15.067c32.267 32.267 75.067 50 120.667 50s88.4-17.733 120.667-50l15.067-15.067 30.133 30.133-15.067 15.067c-40.267 40.4-93.867 62.533-150.8 62.533zM300.8 403.2l-15.067-15.067 30.133-30.133 15.067 15.067c48.4 48.267 112.667 74.933 181.067 74.933s132.667-26.667 181.067-74.933l15.067-15.067 30.133 30.133-15.067 15.067c-56.4 56.4-131.467 87.467-211.2 87.467s-154.8-31.067-211.2-87.467z" />
<glyph unicode="&#xe918;" glyph-name="home-user" data-tags="home-user" d="M1022.8 381.6l-212.133 220.267v251.467c0 11.733-9.6 21.333-21.333 21.333h-128c-11.733 0-21.333-9.6-21.333-21.333v-74.133l-66.4 69.067c-16.267 16.933-38.133 26.133-61.467 26.133 0 0 0 0 0 0-23.467 0-45.2-9.333-61.467-26.133l-449.333-466.667 61.467-59.2 107.867 112.133v-327.867c0-47.067 38.267-85.333 85.333-85.333h512c47.067 0 85.333 38.267 85.333 85.333v327.867l107.867-112.133 61.6 59.2zM682.667 832h85.333v-185.733l-85.333 88.667v97.067zM768 106.667h-512v416.4l256 266 256-265.867v-416.533zM384 448c0-40.533 18.933-76.667 48.4-100.133-6.667-2.8-13.2-6.133-19.467-9.867-26.933-15.867-49.333-39.067-68.533-71.067-6-9.867-2.933-22.8 6.8-29.067 48.8-30.8 101.467-45.867 160.8-45.867s112 15.067 160.8 46c9.733 6.267 12.8 19.067 6.8 29.067-19.2 32-41.6 55.2-68.533 71.067-6.267 3.733-12.8 6.933-19.467 9.867 29.467 23.467 48.4 59.6 48.4 100.133 0 70.533-57.467 128-128 128s-128-57.6-128-128.133zM630.933 263.067c-36.4-19.067-75.467-28.4-118.933-28.4s-82.533 9.333-118.933 28.4c29.467 39.2 66.933 56.933 118.933 56.933s89.467-17.733 118.933-56.933zM597.333 448c0-47.067-38.267-85.333-85.333-85.333s-85.333 38.267-85.333 85.333c0 47.067 38.267 85.333 85.333 85.333s85.333-38.267 85.333-85.333z" />
<glyph unicode="&#xe919;" glyph-name="faucet" data-tags="faucet" d="M981.333 103.067v131.6c0 164.667-134 298.667-298.667 298.667h-42.667v64c0 11.733-9.6 21.333-21.333 21.333h-64v64c0 11.733-9.6 21.333-21.333 21.333h-21.333v14.133c7.2 5.2 13.867 11.733 19.6 19.333 2.133 2.933 4.267 6 6.133 9.2h166.267c35.333 0 64 28.667 64 64s-28.667 64-64 64h-166.267c-1.867 3.2-4 6.267-6.133 9.2-16 21.333-38.667 33.467-62.267 33.467s-46.4-12.267-62.267-33.467c-2.133-2.933-4.267-6-6.133-9.2h-166.267c-35.333 0-64-28.667-64-64s28.667-64 64-64h166.267c1.867-3.2 4-6.267 6.133-9.2 5.733-7.733 12.4-14.133 19.6-19.333v-14.133h-21.333c-11.733 0-21.333-9.6-21.333-21.333v-64h-64c-11.733 0-21.333-9.6-21.333-21.333v-64h-277.333c-11.733 0-21.333-9.6-21.333-21.333v-213.333c0-11.733 9.6-21.333 21.333-21.333h277.333c40-53.2 103.333-85.333 170.667-85.333 38.133 0 75.6 10.133 108.133 29.467 24.267 14.267 45.6 33.467 62.533 55.867h42.667c23.467 0 42.667-19.2 42.667-42.667v-131.6c-24.8-8.8-42.667-32.533-42.667-60.4 0-35.333 28.667-64 64-64h213.333c35.333 0 64 28.667 64 64 0 27.867-17.867 51.6-42.667 60.4zM704 832c11.733 0 21.333-9.6 21.333-21.333s-9.6-21.333-21.333-21.333h-151.067c1.067 6.933 1.733 14.133 1.733 21.333s-0.533 14.4-1.733 21.333h151.067zM234.667 789.333c-11.733 0-21.333 9.6-21.333 21.333s9.6 21.333 21.333 21.333h151.067c-1.067-6.933-1.733-14.133-1.733-21.333s0.533-14.4 1.733-21.333h-151.067zM469.333 874.667c23.067 0 42.667-29.333 42.667-64s-19.6-64-42.667-64-42.667 29.333-42.667 64 19.6 64 42.667 64zM682.667 362.667h-65.467c-15.2 0-29.333-8.133-36.933-21.333-22.933-39.467-65.467-64-110.933-64-45.6 0-88.133 24.533-110.933 64-7.6 13.2-21.733 21.333-36.933 21.333h-278.8v85.333h298.667c23.6 0 42.667 19.067 42.667 42.667v85.333h21.333c11.733 0 21.333 9.6 21.333 21.333v64h85.333v-64c0-11.733 9.6-21.333 21.333-21.333h21.333v-85.333c0-23.6 19.067-42.667 42.667-42.667h85.333c117.6 0 213.333-95.733 213.333-213.333v-128h-85.333v128c0 70.533-57.467 128-128 128zM960 21.333h-213.333c-11.733 0-21.333 9.6-21.333 21.333s9.6 21.333 21.333 21.333h213.333c11.733 0 21.333-9.6 21.333-21.333s-9.6-21.333-21.333-21.333z" />
<glyph unicode="&#xe91a;" glyph-name="sink" data-tags="sink" d="M1004.533 672.267c-16.267 20.133-40.533 31.733-66.4 31.733h-84.8v64c0 18.533-12 35.733-33.6 48.533-16.133 9.6-36 15.467-51.733 15.467s-35.6-5.867-51.733-15.467c-21.6-12.8-33.6-30-33.6-48.533v-64h-128v85.333h64c11.733 0 21.333 9.6 21.333 21.333v42.667c0 58.8-47.867 106.667-106.667 106.667s-106.667-47.867-106.667-106.667v-149.333h-85.333v64c0 18.533-12 35.733-33.6 48.533-16.133 9.6-36 15.467-51.733 15.467s-35.6-5.867-51.733-15.467c-21.6-12.8-33.6-30-33.6-48.533v-64h-84.8c-25.867 0-50.133-11.6-66.4-31.733s-22.4-46.133-17.067-71.467c14.933-69.333 55.333-134.267 116.8-187.867 50-43.6 112.267-78.4 181.867-101.733l-48-350.8c-0.8-6.133 1.067-12.267 5.067-16.933s9.867-7.333 16.133-7.333h475.6c6.133 0 12 2.667 16.133 7.333s5.867 10.8 5.067 16.933l-48 350.8c69.6 23.467 131.867 58.267 181.867 101.733 61.6 53.733 102 118.667 116.8 187.867 5.2 25.333-0.933 51.333-17.2 71.467zM725.333 768c0.133 1.067 3.067 6.4 13.867 12.533s22.533 8.8 28.8 8.8 18-2.8 28.8-8.8c10.8-6.133 13.733-11.6 13.867-12.533v-64h-85.333v64zM469.333 853.333c0 35.333 28.667 64 64 64s64-28.667 64-64v-21.333h-42.667v42.667h-42.667v-170.667h-42.667v149.333zM213.333 768c0.133 1.067 3.067 6.4 13.867 12.533s22.533 8.8 28.8 8.8 18-2.8 28.8-8.8c10.8-6.133 13.733-11.6 13.867-12.533v-64h-85.333v64zM390 331.6c39.6-7.733 80.4-11.6 122-11.6 41.467 0 82.4 3.867 122 11.6l48.267-352.933h-340.533l48.267 352.933zM938.133 618.667c-22.4-104.533-129.867-197.2-273.6-236.133 0 0 0 0 0 0v0c-48.667-13.2-100-19.867-152.533-19.867s-103.867 6.667-152.533 19.867c0 0 0 0 0 0-143.733 38.933-251.067 131.467-273.6 236.133 0 0 0 0 0 0h852.267c0 0 0 0 0 0z" />
<glyph unicode="&#xe91b;" glyph-name="plunger" data-tags="plunger" d="M724.533 63.467c-6.933 87.067-57.333 160.533-127.2 194.267v19.6c0 31.467-17.2 59.067-42.667 73.867v608.8h-85.333v-608.8c-25.467-14.8-42.667-42.4-42.667-73.867v-19.6c-69.733-33.6-120.133-107.2-127.2-194.267-48.267-5.2-86.133-50.8-86.133-106.133 0-11.733 9.6-21.333 21.333-21.333h554.667c11.733 0 21.333 9.6 21.333 21.333 0 55.333-37.867 101.067-86.133 106.133zM469.333 277.333c0 23.467 19.2 42.667 42.667 42.667s42.667-19.2 42.667-42.667v-4.667c-13.733 3.067-28 4.667-42.667 4.667s-28.933-1.6-42.667-4.667v4.667zM512 234.667c87.733 0 160.133-74.8 169.6-170.667h-339.2c9.467 95.867 81.867 170.667 169.6 170.667zM259.067-21.333c7.2 24.8 26.8 42.667 49.6 42.667h406.8c22.933 0 42.4-17.867 49.6-42.667h-506z" />
<glyph unicode="&#xe91c;" glyph-name="bathtub" data-tags="bathtub" d="M988.933 406l-15.2 84c-54.267-9.867-108.533-18-163.067-24.4v409.067c0 47.067-38.267 85.333-85.333 85.333h-170.667c-47.067 0-85.333-38.267-85.333-85.333h-42.667c-47.067 0-85.333-38.267-85.333-85.333v-21.333c0-11.733 9.6-21.333 21.333-21.333h256c11.733 0 21.333 9.6 21.333 21.333v21.333c0 47.067-38.267 85.333-85.333 85.333h-42.667c0 23.467 19.2 42.667 42.667 42.667h170.667c23.467 0 42.667-19.2 42.667-42.667v-413.6c-239.2-24-479.733-14.267-717.733 28.933l-15.2-84c16.933-3.067 34-6 50.933-8.8l23.6-189.067c10.533-84 69.333-151.733 146.4-176.667v-10.267c0-23.467-19.2-42.667-42.667-42.667v-42.667c47.067 0 85.333 38.267 85.333 85.333v1.2c7.467-0.8 15.067-1.2 22.667-1.2h381.333c7.6 0 15.2 0.4 22.667 1.2v-1.2c0-47.067 38.267-85.333 85.333-85.333v42.667c-23.467 0-42.667 19.2-42.667 42.667v10.267c77.067 24.933 135.867 92.667 146.4 176.667l23.6 189.067c17.067 2.8 34 5.733 50.933 8.8zM554.667 832c23.467 0 42.667-19.2 42.667-42.667h-213.333c0 23.467 19.2 42.667 42.667 42.667h128zM829.733 218.8c-8-63.867-62.533-112.133-127.067-112.133h-381.333c-64.4 0-119.067 48.267-127.067 112.133l-20.667 165.733c112.8-14.533 226.133-21.867 338.4-21.867s225.6 7.333 338.4 21.867l-20.667-165.733zM334.018 587.762l61.773 123.546 38.161-19.081-61.773-123.546-38.161 19.081zM547.345 692.224l38.161 19.081 61.773-123.546-38.161-19.081-61.773 123.546zM469.333 661.333h42.667v-128h-42.667v128z" />
<glyph unicode="&#xe91d;" glyph-name="rubber-duck" data-tags="rubber-duck" d="M974.8 740.667c-4.267 4.133-10 6.267-15.867 6-30.267-1.467-78.667-0.4-113.067 6.667-0.533 1.733-0.933 3.333-1.467 5.067-16.933 54.8-52.933 100.8-101.2 129.467-50.8 30-110.133 37.6-167.333 21.333-53.333-15.2-97.333-51.333-123.867-101.467-27.6-52.133-32.667-114.4-14-170.933 12.133-40.667 32.4-62.933 48.667-80.933 16.8-18.4 25.2-27.733 25.2-58 0-28.133-37.467-45.733-74.4-48.667-4.267-0.4-8.667-0.533-12.933-0.533-41.2 0-83.467 15.067-117.733 42.4-48.133 38.267-80.133 99.6-92.4 177.333-2.8 17.467-16.133 31.467-33.467 35.067s-35.2-3.867-44.667-18.933c-52.933-83.2-83.333-169.067-90.4-255.333-6.8-83.467 9.467-163.867 47.2-232.533 75.733-138.533 228.933-218 419.867-218 156.267 0 246.4 60 294.533 110.4 55.067 57.733 86.667 134.933 86.667 211.867 0 86.667-42.133 147.2-102.533 147.2-11.067 0-18.267 0.8-22.667 1.733 0.8 3.467 2.267 8.533 5.067 15.6 5.333 14 13.6 30.933 22.267 48.8 5.6 11.467 11.467 23.6 17.333 36.4 48.267 13.733 86.933 34.133 115.333 60.667 33.733 31.333 51.867 70.8 52.4 113.867 0.133 5.733-2.267 11.467-6.533 15.467zM791.333 362.8c1.867-1.067 8.667-8 13.333-26.133 5.6-22 5.467-49.6-0.4-77.6-9.467-45.733-58.933-195.067-291.333-195.067-158.933 0-284.667 63.2-345.333 173.6-48.667 88.533-50.133 199.333-6.8 309.2 22-49.867 53.2-91.467 92.667-122.667 54.667-43.467 124.133-65.333 190.533-60.133 90.133 7.067 153.067 62 153.067 133.733 0 63.333-26.267 92.267-47.467 115.467-13.2 14.533-23.6 26-30.133 48.267-0.133 0.533-0.267 0.933-0.4 1.467-11.6 34.8-8.533 72.933 8.267 104.933 15.6 29.467 41.067 50.533 71.867 59.333 77.467 22.133 144-30.4 163.6-93.867 17.467-56.667-14.8-123.067-43.333-181.6-11.867-24.533-23.2-47.733-30-68.933-3.867-12-15.467-48.533 4.267-80 24.933-39.867 79.333-40 97.6-40zM834.8 602.933c11.6 33.467 19.467 69.333 18 105.867 30-4.667 61.733-5.467 83.333-5.333-9.333-42.933-44.667-77.6-101.333-100.533zM725.333 704c0 23.467-19.2 42.667-42.667 42.667s-42.667-19.2-42.667-42.667 19.2-42.667 42.667-42.667 42.667 19.2 42.667 42.667zM682.667 704c0 0 0 0 0 0v0z" />
<glyph unicode="&#xe91e;" glyph-name="towel" data-tags="towel" d="M1005.2 855.867c-12 12.133-28.133 18.8-45.2 18.8h-96.667c-23.467 26.133-57.467 42.667-95.333 42.667h-512c-36.933 0-71.2-15.467-95.467-42.667h-96.533c-35.333 0-64-28.667-64-64s28.667-64 64-64h64.533v-554.667c0-47.067 38.267-85.333 85.333-85.333h84.8v-42.667c0-47.067 38.267-85.333 85.333-85.333h426.667c47.067 0 85.333 38.267 85.333 85.333v682.667h64c35.333 0 64 28.667 64 64 0 17.067-6.667 33.2-18.8 45.2zM384 332.533l21.333 21.333 70.267-70.267c8.267-8.267 21.867-8.267 30.133 0l70.267 70.267 70.267-70.267c8.267-8.267 21.867-8.267 30.133 0l70.267 70.267 64-64v-67.6l-48.933 48.933c-8.267 8.267-21.867 8.267-30.133 0l-70.267-70.4-70.267 70.267c-8.267 8.267-21.867 8.267-30.133 0l-70.267-70.267-70.267 70.267c-8.267 8.267-21.867 8.267-30.133 0l-6.267-6.267v67.733zM768 832c23.467 0 42.667-19.2 42.667-42.667v-439.2l-48.933 48.933c-8.267 8.267-21.867 8.267-30.133 0l-70.267-70.267-70.267 70.267c-8.267 8.267-21.867 8.267-30.133 0l-70.267-70.267-70.267 70.267c-8.267 8.267-21.867 8.267-30.133 0l-6.267-6.267v396.533c0 14.933-2.533 29.333-7.333 42.667h391.333zM42.667 810.667c0 11.733 9.6 21.333 21.333 21.333h192c23.467 0 42.667-19.2 42.667-42.667h-234.667c-11.733 0-21.333 9.6-21.333 21.333zM213.867 192v554.667h84.8v-554.667h-84.8zM384 64v140.533l21.333 21.333 70.267-70.267c8.267-8.267 21.867-8.267 30.133 0l70.267 70.267 70.267-70.267c8.267-8.267 21.867-8.267 30.133 0l70.267 70.267 64-64v-97.867h-426.667zM975.067 795.6c-4-4-9.333-6.267-15.067-6.267h-64c0 14.933-2.533 29.333-7.333 42.667h71.333c11.733 0 21.333-9.6 21.333-21.333 0-5.733-2.267-11.067-6.267-15.067z" />
<glyph unicode="&#xe91f;" glyph-name="toothbrush" data-tags="toothbrush" d="M148.133 576c9.6 0 203.867-0.267 274.8-0.267 12.133 0 20.667 0 24 0 75.733 0.267 136.933 23.2 177.2 66.267 44.4 47.733 63.733 119.333 57.333 212.667-0.667 10.267-8.667 18.667-18.933 19.733s-19.867-5.333-22.8-15.2c-15.067-51.6-113.333-70-192.8-70h-298.667c-58.8 0-106.667-47.867-106.667-106.667s47.733-106.533 106.533-106.533zM148.133 746.667h298.667c38.133 0 76.933 4 109.2 11.2 34.4 7.733 62.133 18.933 82.8 33.467-4.133-51.467-19.467-91.867-46-120.267-32.4-34.8-81.6-52.533-146.133-52.8-22.667-0.133-295.733 0.267-298.533 0.267-35.333 0-64 28.667-64 64s28.8 64.133 64 64.133zM1002.667 234.667h-403.867c7.467 111.867 40 227.067 40.4 228.267 2.267 7.733-0.133 16.133-6.133 21.6s-14.533 7.067-22.133 4.133c-38.267-14.933-72.8-35.067-103.2-60-6.667 34.8-21.2 67.333-42.8 95.6-4.667 6.133-12.4 9.333-20.133 8.133s-14.133-6.4-16.8-13.733c-13.067-35.467-31.467-68.8-50-91.733-9.067 32.8-26.533 60.667-42.267 77.6-0.267 0.267-0.4 0.4-0.667 0.667-5.867 5.867-18 14.4-54 20.533-20.933 3.6-47.067 6-75.467 6.933-48.267 1.6-110.133-0.933-139.067-13.067-20.8-8.4-23.867-22.133-23.867-29.467 0-2.267 0.4-4.533 1.067-6.667 29.867-89.733 38.4-191.467 40.8-251.067-48.267-10.267-84.533-53.2-84.533-104.4 0-58.8 47.867-106.667 106.667-106.667h896c11.733 0 21.333 9.6 21.333 21.333v170.667c0 11.733-9.6 21.333-21.333 21.333zM193.467 490.533c64.267-1.2 103.6-9.733 111.467-15.6 18.133-20 36.267-55.6 36.267-91.2 0-7.733 4.267-14.933 11.067-18.667s15.067-3.467 21.733 0.667c30.8 19.333 58.133 60.267 77.333 99.6 11.867-25.067 18-52.667 18-81.467 0-8.8 5.333-16.533 13.467-19.867 8.133-3.2 17.333-1.2 23.333 5.2 23.2 24.533 50.267 45.2 80.667 61.6-10.8-45.733-26.133-120.933-30.8-196h-428.933c-2.4 59.2-10.667 157.6-38.267 247.867 16.267 4.4 53.067 8.8 104.667 7.867zM981.333 106.667h-874.667c-11.733 0-21.333 9.6-21.333 21.333s9.6 21.333 21.333 21.333h874.667v-42.667z" />
<glyph unicode="&#xe920;" glyph-name="razor" data-tags="razor" d="M981.333 948.533c-19.733 11.333-42.667 14.4-64.667 8.533-21.2-5.6-38.933-18.8-50.4-37.333-3.6-4.8-15.333-20.533-34-45.067h-746.933c-47.067 0-85.333-38.267-85.333-85.333v-106.667c0-11.733 9.6-21.333 21.333-21.333h341.333c57.867 0 89.733 23.333 117.867 43.867 29.2 21.333 56.8 41.467 116.8 41.467h134.933c-121.467-152.133-312.8-380.933-524-592.133-49.867-49.867-49.867-131.067 0-181.067 24.133-24.133 56.267-37.467 90.4-37.467s66.267 13.333 90.533 37.467c116.933 116.933 257.467 296.933 417.467 535.067 118.8 176.8 204.8 321.6 205.6 323.067l0.267 0.533c23.467 40.8 9.467 93.067-31.2 116.4zM597.333 789.333c-73.867 0-110-26.4-141.867-49.733-27.333-19.867-48.8-35.6-92.8-35.6h-320v85.333c0 23.467 19.2 42.667 42.667 42.667h714c-10.133-13.067-21.2-27.333-33.333-42.667h-168.667zM328.933 33.867c-16.667-16.667-43.733-16.667-60.267 0-16.667 16.667-16.667 43.733 0 60.267 188.533 188.533 360 389.6 470.533 524.933 119.733 146.8 196.133 250.667 196.933 251.6l0.933 1.333c-26.933-44.933-348-578-608.133-838.133z" />
<glyph unicode="&#xe921;" glyph-name="bed" data-tags="bed" d="M963.733 661.333c-45.6-40.267-67.733-96.133-67.733-170.667v-21.333c-17.867 13.467-40 21.333-64 21.333h-448.133c-1.2 84.667-30.4 155.733-83.6 201.867-49.6 43.067-117.2 61.467-186.933 51.333-9.6 31.333-25.6 62.267-52.133 87.2l-58.4-62.133c39.867-37.6 39.867-113.733 39.867-150.267v-512h85.333v85.333h768v-85.333h85.333v384c0 49.333 12.4 83.2 38.933 106.667l-56.533 64zM128 320h768v-42.667h-768v42.667zM896 384v-21.333h-768v21.333c0 35.333 28.667 64 64 64h640c35.333 0 64-28.667 64-64zM192 490.667c-24 0-46.133-8-64-21.333v103.467c8.667-14 18.667-27.067 29.733-39.067 15.333-16.533 32.4-30.933 51.2-42.933h-16.933zM272.267 660.267c43.467-37.733 67.6-97.2 68.933-168.933-130.667 9.867-204.533 110.667-212.533 211.333 54.133 5.733 105.733-9.333 143.6-42.4z" />
<glyph unicode="&#xe922;" glyph-name="bed-time" data-tags="bed-time" d="M1024 554.667c0 152.933-124.4 277.333-277.333 277.333s-277.333-124.4-277.333-277.333c0-37.733 7.6-73.867 21.333-106.667h-106.8c-1.2 84.667-30.4 155.733-83.6 201.867-49.6 43.067-117.2 61.467-186.933 51.333-9.6 31.333-25.6 62.267-52.133 87.2l-58.4-62.133c39.867-37.467 39.867-113.733 39.867-150.267v-512h85.333v85.333h768v-85.333h85.333v343.067c27.067 42.667 42.667 93.333 42.667 147.6zM725.333 788.4v-84.4h42.667v84.4c112.4-10.133 202.133-100 212.4-212.4h-84.4v-42.667h84.4c-10.133-112.4-100-202.133-212.4-212.4v84.4h-42.667v-84.4c-112.4 10.133-202.133 100-212.4 212.4h84.4v42.667h-84.4c10.267 112.4 100 202.133 212.4 212.4zM599.067 320h-471.067v21.333c0 35.333 28.667 64 64 64h321.067c22-34.4 51.467-63.6 86-85.333zM192 448c-24 0-46.133-8-64-21.333v103.467c8.667-14 18.667-27.067 29.733-39.067 15.333-16.533 32.4-30.933 51.2-42.933h-16.933zM272.267 617.6c43.467-37.733 67.6-97.2 68.933-168.933-130.667 9.867-204.533 110.667-212.533 211.333 54.133 5.733 105.733-9.333 143.6-42.4zM128 234.667v42.667h768v-42.667h-768zM746.667 490.667c0.667 0 1.467 0 2.133 0.133 6.4 0.667 12.133 4.133 15.6 9.333l97.2 145.733-35.467 23.733-82.667-124.133-82.133 82-30.133-30.133 100.4-100.4c4-4 9.467-6.267 15.067-6.267z" />
<glyph unicode="&#xe923;" glyph-name="bed-check" data-tags="bed-check" d="M1024 554.667c0 152.933-124.4 277.333-277.333 277.333s-277.333-124.4-277.333-277.333c0-37.733 7.6-73.867 21.333-106.667h-106.8c-1.2 84.667-30.4 155.733-83.6 201.867-49.6 43.067-117.2 61.467-186.933 51.333-9.6 31.333-25.6 62.267-52.133 87.2l-58.4-62.133c39.867-37.467 39.867-113.733 39.867-150.267v-512h85.333v85.333h768v-85.333h85.333v343.067c27.067 42.667 42.667 93.333 42.667 147.6zM746.667 789.333c129.333 0 234.667-105.333 234.667-234.667s-105.333-234.667-234.667-234.667-234.667 105.333-234.667 234.667 105.333 234.667 234.667 234.667zM599.067 320h-471.067v21.333c0 35.333 28.667 64 64 64h321.067c22-34.4 51.467-63.6 86-85.333zM192 448c-24 0-46.133-8-64-21.333v103.467c8.667-14 18.667-27.067 29.733-39.067 15.333-16.533 32.4-30.933 51.2-42.933h-16.933zM272.267 617.6c43.467-37.733 67.6-97.2 68.933-168.933-130.667 9.867-204.533 110.667-212.533 211.333 54.133 5.733 105.733-9.333 143.6-42.4zM128 234.667v42.667h768v-42.667h-768zM704 448c5.467 0 10.933 2.133 15.067 6.267l185.733 185.733-30.133 30.133-170.667-170.667-85.333 85.333-30.133-30.133 100.4-100.4c4.133-4.133 9.6-6.267 15.067-6.267z" />
<glyph unicode="&#xe924;" glyph-name="bed-cross" data-tags="bed-cross" d="M1024 554.667c0 152.933-124.4 277.333-277.333 277.333s-277.333-124.4-277.333-277.333c0-37.733 7.6-73.867 21.333-106.667h-106.8c-1.2 84.667-30.4 155.733-83.6 201.867-49.6 43.067-117.2 61.467-186.933 51.333-9.6 31.333-25.6 62.267-52.133 87.2l-58.4-62.133c39.867-37.467 39.867-113.733 39.867-150.267v-512h85.333v85.333h768v-85.333h85.333v343.067c27.067 42.667 42.667 93.333 42.667 147.6zM746.667 789.333c129.333 0 234.667-105.333 234.667-234.667s-105.333-234.667-234.667-234.667-234.667 105.333-234.667 234.667 105.333 234.667 234.667 234.667zM599.067 320h-471.067v21.333c0 35.333 28.667 64 64 64h321.067c22-34.4 51.467-63.6 86-85.333zM192 448c-24 0-46.133-8-64-21.333v103.467c8.667-14 18.667-27.067 29.733-39.067 15.333-16.533 32.4-30.933 51.2-42.933h-16.933zM272.267 617.6c43.467-37.733 67.6-97.2 68.933-168.933-130.667 9.867-204.533 110.667-212.533 211.333 54.133 5.733 105.733-9.333 143.6-42.4zM128 234.667v42.667h768v-42.667h-768zM661.333 439.2l85.333 85.333 85.333-85.333 30.133 30.133-85.333 85.333 85.333 85.333-30.133 30.133-85.333-85.333-85.333 85.333-30.133-30.133 85.333-85.333-85.333-85.333z" />
<glyph unicode="&#xe925;" glyph-name="couch" data-tags="couch" d="M973.067 527.867c-21.333 21.2-47.867 35.733-77.067 42.933v47.867c0 79.733-31.067 154.8-87.467 211.2s-131.467 87.467-211.2 87.467h-170.667c-79.733 0-154.8-31.067-211.2-87.467s-87.467-131.467-87.467-211.2v-47.733c-29.2-7.2-55.6-21.867-77.067-43.067-32.8-32.533-50.933-77.867-50.933-127.867 0-37.067 11.733-74.533 32.8-105.2 14.667-21.333 32.667-37.6 52.533-47.867v-182.933c0-47.067 38.267-85.333 85.333-85.333h128c23.6 0 42.667 19.067 42.667 42.667h341.333c0-23.6 19.067-42.667 42.667-42.667h128c47.067 0 85.333 38.267 85.333 85.333v182.933c19.867 10.267 37.867 26.533 52.533 47.867 21.2 30.667 32.8 68.133 32.8 105.2 0 50-18.133 95.333-50.933 127.867zM256 64h-85.333v213.333h42.667v42.667h-81.733c-21.333 4.933-46.267 41.467-46.267 80 0 27.333 8.933 50.667 25.6 67.2 15.333 15.2 36.4 23.467 59.6 23.467 0.4 0 0.667 0 1.067 0 46.533-0.533 84.4-39.467 84.4-86.933v-339.733zM682.667 192h-341.333v106.667c0 35.333 28.667 64 64 64h213.333c35.333 0 64-28.667 64-64v-106.667zM341.333 106.667v42.667h341.333v-42.667h-341.333zM731.6 524.4c-31.6-32.533-48.933-75.333-48.933-120.667v-19.733c-17.867 13.467-40 21.333-64 21.333h-213.333c-24 0-46.133-8-64-21.333v19.733c0 45.333-17.333 88.133-48.933 120.667-22.133 22.667-49.333 38.533-79.067 46.267v48c0 117.6 95.733 213.333 213.333 213.333h170.667c117.6 0 213.333-95.733 213.333-213.333v-48.133c-29.733-7.6-56.933-23.467-79.067-46.133zM892.4 320h-81.733v-42.667h42.667v-213.333h-85.333v339.733c0 47.467 37.867 86.4 84.4 86.933 0.4 0 0.667 0 1.067 0 23.2 0 44.267-8.267 59.6-23.467 16.667-16.533 25.6-39.867 25.6-67.2 0-38.533-24.933-75.067-46.267-80zM512 746.667c-23.467 0-42.667-19.2-42.667-42.667s19.2-42.667 42.667-42.667c23.467 0 42.667 19.2 42.667 42.667s-19.2 42.667-42.667 42.667zM512 704c0 0 0 0 0 0v0zM384 661.333c-23.467 0-42.667-19.2-42.667-42.667s19.2-42.667 42.667-42.667 42.667 19.2 42.667 42.667-19.2 42.667-42.667 42.667zM384 618.667c0 0 0 0 0 0v0zM640 661.333c-23.467 0-42.667-19.2-42.667-42.667s19.2-42.667 42.667-42.667 42.667 19.2 42.667 42.667-19.2 42.667-42.667 42.667zM640 618.667c0 0 0 0 0 0v0zM512 576c-23.467 0-42.667-19.2-42.667-42.667s19.2-42.667 42.667-42.667c23.467 0 42.667 19.2 42.667 42.667s-19.2 42.667-42.667 42.667zM512 533.333c0 0 0 0 0 0v0z" />
<glyph unicode="&#xe926;" glyph-name="chair" data-tags="chair" d="M768.933 448c3.2 74.267 14.267 137.2 24.133 193.867 9.467 54.267 17.6 101.067 17.6 147.467 0 52.133-31.467 97.6-88.667 128.133-52.133 27.867-124.8 42.533-210 42.533s-157.867-14.667-210-42.533c-57.2-30.533-88.667-76-88.667-128.133 0-46.4 8.133-93.2 17.6-147.467 9.867-56.667 20.933-119.6 24.133-193.867-46.667-0.533-84.4-38.533-84.4-85.333v-64c0-11.733 9.6-21.333 21.333-21.333h63.467c-4.667-110.8-41.2-323.867-41.6-326.133l84.133-14.533c1.6 9.6 38.4 224.133 42.8 340.533h43.2v-298.667h42.667v298.8h170.667v-298.667h42.667v298.667h43.067c4.533-116.4 41.2-330.933 42.8-340.533l84.133 14.533c-0.4 2.267-36.8 215.333-41.6 326.133h63.6c11.733 0 21.333 9.6 21.333 21.333v64c0 46.667-37.733 84.667-84.4 85.2zM725.333 789.333c0-38.933-7.6-82.533-16.4-132.8-10.533-60.267-22.267-127.467-25.467-208.533h-85.733c4 192 34 339.2 51.067 408 50.267-16.667 76.533-42.133 76.533-66.667zM607.333 866.533c-5.867-23.467-13.067-55.6-20.4-95.467-13.333-73.333-29.067-186.267-31.867-323.067h-86.267c-2.8 136.8-18.533 249.733-31.867 323.067-7.333 39.867-14.533 72-20.4 95.467 27.467 5.067 59.2 8.133 95.467 8.133s68-3.067 95.333-8.133zM375.2 856c16.933-68.667 46.933-215.6 50.933-408h-85.733c-3.2 81.067-14.933 148.267-25.467 208.533-8.8 50.4-16.4 93.867-16.4 132.8 0.133 24.533 26.4 50 76.667 66.667zM256 320v42.667h512v-42.667h-512z" />
<glyph unicode="&#xe927;" glyph-name="office" data-tags="office" d="M810.667 21.333v768h42.667v42.667h-42.667v85.333h42.667v42.667h-682.667v-42.667h42.667v-85.333h-42.667v-42.667h42.667v-768h-85.333v-85.333h768v85.333h-85.333zM298.667 874.667h426.667v-42.667h-426.667v42.667zM298.667 789.333h426.667v-768h-85.333v149.333c0 11.733-9.6 21.333-21.333 21.333h-213.333c-11.733 0-21.333-9.6-21.333-21.333v-149.333h-85.333v768zM597.333 21.333h-170.667v128h170.667v-128zM341.333 746.667h85.333v-85.333h-85.333v85.333zM469.333 746.667h85.333v-85.333h-85.333v85.333zM597.333 746.667h85.333v-85.333h-85.333v85.333zM341.333 618.667h85.333v-85.333h-85.333v85.333zM469.333 618.667h85.333v-85.333h-85.333v85.333zM597.333 618.667h85.333v-85.333h-85.333v85.333zM341.333 490.667h85.333v-85.333h-85.333v85.333zM469.333 490.667h85.333v-85.333h-85.333v85.333zM597.333 490.667h85.333v-85.333h-85.333v85.333zM341.333 362.667h85.333v-85.333h-85.333v85.333zM469.333 362.667h85.333v-85.333h-85.333v85.333zM597.333 362.667h85.333v-85.333h-85.333v85.333z" />
<glyph unicode="&#xe928;" glyph-name="city" data-tags="city" d="M640 661.333h42.667v-85.333h-42.667v85.333zM725.333 661.333h42.667v-85.333h-42.667v85.333zM810.667 661.333h42.667v-85.333h-42.667v85.333zM640 533.333h42.667v-85.333h-42.667v85.333zM725.333 533.333h42.667v-85.333h-42.667v85.333zM810.667 533.333h42.667v-85.333h-42.667v85.333zM640 405.333h42.667v-85.333h-42.667v85.333zM725.333 405.333h42.667v-85.333h-42.667v85.333zM810.667 405.333h42.667v-85.333h-42.667v85.333zM640 277.333h42.667v-85.333h-42.667v85.333zM725.333 277.333h42.667v-85.333h-42.667v85.333zM810.667 277.333h42.667v-85.333h-42.667v85.333zM981.333 21.333v725.333c0 16.8-9.867 32.133-25.333 38.933l-384 170.667c-13.2 5.867-28.533 4.667-40.533-3.2-12.133-7.867-19.467-21.333-19.467-35.733v-277.333c0 5.6-2.267 11.067-6.267 15.067l-36.4 36.4v33.867c0 4.267-1.2 8.267-3.6 11.867l-81.733 122.667v100.133h-42.667v-100.267l-81.733-122.667c-2.4-3.467-3.6-7.6-3.6-11.867v-33.867l-36.4-36.4c-4-4-6.267-9.467-6.267-15.067v-33.867l-30.133-30h-33.867c-11.733 0-21.333-9.6-21.333-21.333v-21.333h-42.667c-23.6 0-42.667-19.067-42.667-42.667v-469.333h-42.667v-85.333h1024v85.333h-42.667zM896 718.933v-697.6h-298.667v830.4l298.667-132.8zM249.733 582.267c4 4 6.267 9.467 6.267 15.067v33.867l36.4 36.4c4 4 6.267 9.467 6.267 15.067v36.267l64 96 64-96v-36.267c0-5.6 2.267-11.067 6.267-15.067l36.4-36.4v-33.867c0-5.6 2.267-11.067 6.267-15.067l36.4-36.4v-524.533h-85.333v469.333c0 23.6-19.067 42.667-42.667 42.667h-42.667v21.333c0 11.733-9.6 21.333-21.333 21.333h-76.533l6.267 6.267zM128 448h213.333v-426.667h-213.333v426.667zM640 789.333h42.667v-85.333h-42.667v85.333zM640 149.333h42.667v-85.333h-42.667v85.333zM170.667 405.333h42.667v-85.333h-42.667v85.333zM725.333 149.333h42.667v-85.333h-42.667v85.333zM810.667 149.333h42.667v-85.333h-42.667v85.333zM256 405.333h42.667v-85.333h-42.667v85.333zM170.667 277.333h42.667v-85.333h-42.667v85.333zM256 277.333h42.667v-85.333h-42.667v85.333zM170.667 149.333h42.667v-85.333h-42.667v85.333zM256 149.333h42.667v-85.333h-42.667v85.333zM725.333 746.667h42.667v-42.667h-42.667v42.667z" />
<glyph unicode="&#xe929;" glyph-name="pencil" data-tags="pencil" d="M967.333 903.333c-36.533 36.533-85.067 56.667-136.8 56.667s-100.267-20.133-136.8-56.667l-595.867-595.867c-5.067-5.067-8.8-11.467-10.8-18.4l-85.333-298.667c-4.267-14.933-0.133-30.933 10.8-41.867 8.133-8.133 19.067-12.533 30.133-12.533 3.867 0 7.867 0.533 11.733 1.6l298.667 85.333c6.933 2 13.333 5.733 18.4 10.8l595.867 595.867c75.467 75.6 75.467 198.267 0 273.733zM194.533 283.6l460.533 460.533 152.933-152.933-460.4-460.667-153.067 153.067zM685.2 774.267l33.867 33.867 152.933-152.933-33.867-33.867-152.933 152.933zM165.333 252.533l151.2-151.2-211.733-60.533 60.533 211.733zM907.067 690l-4.8-4.8-153.067 153.067 4.8 4.8c20.533 20.4 47.6 31.6 76.533 31.6s56-11.2 76.533-31.733c42.133-42.133 42.133-110.667 0-152.933z" />
<glyph unicode="&#xe92a;" glyph-name="pencil2" data-tags="pencil2" d="M1011.467 776.8l-170.667 170.667c-16.667 16.667-43.733 16.667-60.4 0l-704-704c-5.2-5.2-9.067-11.733-10.933-18.933l-64-234.667c-4-14.8 0.133-30.533 10.933-41.333 8.133-8.133 19.067-12.533 30.133-12.533 3.733 0 7.467 0.533 11.2 1.467l234.667 64c7.2 2 13.733 5.733 18.933 10.933l704 704c16.8 16.8 16.8 43.733 0.133 60.4zM255.2 80.8l-151.733-41.333 41.333 151.733 665.867 665.733 110.267-110.267-665.733-665.867z" />
<glyph unicode="&#xe92b;" glyph-name="pen" data-tags="pen" d="M997.333 933.333c-35.333 35.333-92.8 35.333-128 0l-37.867-37.867c-6 1.6-12.4 1.867-18.8 0.8-47.867-8.8-111.733-42.8-189.733-101.2-74.133-55.467-154.533-128.267-232.667-210.667-84.267-88.933-162.667-186-226.533-280.667-73.333-108.667-127.733-213.333-161.467-311.067-5.333-15.467-1.333-32.533 10.133-44.133 8.133-8.133 19.067-12.533 30.133-12.533 4.667 0 9.333 0.8 13.867 2.4 97.733 33.733 202.4 88 311.2 161.467 94.667 63.867 191.6 142.133 280.667 226.533 82.4 78 155.2 158.533 210.667 232.667 58.4 78 92.4 141.867 101.2 189.733 1.2 6.267 0.8 12.667-0.8 18.8l38 37.733c35.333 35.333 35.333 92.667 0 128zM205.867 211.867l70-70c-53.067-33.467-105.333-62.267-155.733-85.733 23.467 50.533 52.267 102.8 85.733 155.733zM589.6 388.133c-89.867-85.2-184.133-160.667-277.067-222.533l-82.933 82.933c62 92.933 137.467 187.2 222.667 277.067 20.267 21.333 40.533 42 60.933 61.733l138.267-138.267c-19.867-20.267-40.533-40.667-61.867-60.933zM790.667 610.133c-31.2-41.733-68.267-85.6-109.867-130.133l-136.8 136.8c44.4 41.467 88.4 78.667 130.133 109.867 66.533 49.733 109.2 70.8 133.733 79.733l62.667-62.667c-9.067-24.4-30.133-67.2-79.867-133.6zM967.2 835.467l-33.867-33.867-67.733 67.733 33.867 33.867c18.667 18.667 49.067 18.667 67.733 0s18.667-49.067 0-67.733zM415.067 672.667c61.733 60.4 125.333 115.333 183.733 158.667 26 19.2 50.8 35.867 73.6 49.733l18.267 11.067-22.133 36.533-18.267-11.067c-23.867-14.533-49.733-32-76.8-51.867-60.933-45.2-124.267-99.867-188.267-162.533l-15.2-14.933 29.867-30.533 15.2 14.933z" />
<glyph unicode="&#xe92c;" glyph-name="pencil3" data-tags="pencil3" d="M967.333 903.333c-36.533 36.533-85.067 56.667-136.8 56.667s-100.267-20.133-136.8-56.667l-595.867-595.867c-5.067-5.067-8.8-11.467-10.8-18.4l-85.333-298.667c-4.267-14.933-0.133-30.933 10.8-41.867 8.133-8.133 19.067-12.533 30.133-12.533 3.867 0 7.867 0.533 11.733 1.6l298.667 85.333c6.933 2 13.333 5.733 18.4 10.8l595.867 595.867c75.467 75.6 75.467 198.267 0 273.733zM268.8 235.067c-31.6 2.533-60.267 19.333-78.4 44.533l464.533 464.533 61.467-61.467-447.6-447.6zM187.6 222c20.667-15.6 44.533-25.333 69.733-28.667 3.333-25.333 13.067-49.067 28.667-69.733 6.8-8.933 14.533-17.2 23.2-24.4l-78.533-22.4-89.867 89.867 22.4 78.4c7.2-8.533 15.333-16.267 24.4-23.067zM299.067 204.8l447.6 447.733 61.467-61.467-464.667-464.533c-25.2 18-41.867 46.8-44.4 78.267zM685.2 774.267l33.867 33.867 152.933-152.933-33.867-33.867-152.933 152.933zM127.333 119.733l56.4-56.4-79.067-22.533 22.667 78.933zM907.067 690l-4.8-4.8-153.067 153.067 4.8 4.8c20.533 20.4 47.6 31.6 76.533 31.6s56-11.2 76.533-31.733c42.133-42.133 42.133-110.667 0-152.933z" />
<glyph unicode="&#xe92d;" glyph-name="eraser" data-tags="eraser" d="M998.8 618.4l-273.067 273.6c-16.133 16.133-37.6 25.067-60.4 25.067v0c-22.8 0-44.267-8.933-60.4-24.933l-408.933-409.067c-16.133-16.133-24.933-37.6-24.933-60.4s8.933-44.267 24.933-60.267l170.133-170.4h-238.133v-42.667h507.467c11.333 0 22.267 4.533 30.267 12.667l333.333 336.133c32.933 33.2 32.933 87.2-0.267 120.267zM617.733 234.667h-173.6l-187.733 188 232.133 232.133 274-274-144.8-146.133zM792.533 410.933l-274 274 146.667 146.667 273.2-273.467-145.867-147.2zM0 106.667h341.333v-42.667h-341.333v42.667zM85.333 21.333h341.333v-42.667h-341.333v42.667z" />
<glyph unicode="&#xe92e;" glyph-name="edit" data-tags="edit" d="M967.333 903.333c-36.533 36.533-85.067 56.8-136.8 56.8s-100.267-20.133-136.8-56.667l-71.467-71.467h-600.933c-11.733 0-21.333-9.6-21.333-21.333v-853.333c0-11.733 9.6-21.333 21.333-21.333h853.333c11.733 0 21.333 9.6 21.333 21.333v600.933l71.333 71.333c75.467 75.6 75.467 198.267 0 273.733zM336 423.2l151.2-151.2-211.733-60.533 60.533 211.733zM518.267 301.2l-153.067 153.067 353.867 353.867 152.933-152.933-353.733-354zM853.333-21.333h-810.667v810.667h536.933l-311.067-311.2c-5.067-5.067-8.8-11.467-10.8-18.4l-85.333-298.667c-4.267-14.933-0.133-30.933 10.8-41.867 8.133-8.133 19.067-12.533 30.133-12.533 3.867 0 7.867 0.533 11.733 1.6l298.667 85.333c6.933 2 13.333 5.733 18.4 10.8l311.2 311.2v-536.933zM907.067 690l-4.8-4.8-153.067 153.067 4.8 4.8c20.4 20.4 47.6 31.733 76.533 31.733s56-11.2 76.533-31.733c42.133-42.267 42.133-110.8 0-153.067z" />
<glyph unicode="&#xe92f;" glyph-name="edit2" data-tags="edit2" d="M1011.467 776.8l-170.667 170.667c-16.667 16.667-43.733 16.667-60.4 0l-115.467-115.467h-643.6c-11.733 0-21.333-9.6-21.333-21.333v-853.333c0-11.733 9.6-21.333 21.333-21.333h853.333c11.733 0 21.333 9.6 21.333 21.333v643.6l115.467 115.467c16.667 16.8 16.667 43.733 0 60.4zM853.333-21.333h-810.667v810.667h579.6l-375.067-375.2c-5.2-5.2-9.067-11.733-10.933-18.933l-64-234.667c-4-14.8 0.133-30.533 10.933-41.333 8.133-8.133 19.067-12.533 30.133-12.533 3.733 0 7.467 0.533 11.2 1.467l234.667 64c7.2 2 13.733 5.733 18.933 10.933l375.2 375.2v-579.6zM425.867 251.467l-151.733-41.333 41.333 151.733 495.2 495.067 110.267-110.267-495.067-495.2z" />
<glyph unicode="&#xe930;" glyph-name="notebook" data-tags="notebook" d="M256 661.333h298.667v-42.667h-298.667v42.667zM256 576h426.667v-42.667h-426.667v42.667zM256 490.667h341.333v-42.667h-341.333v42.667zM1024 579.6c0 21.733-8.533 42.267-24 57.733-31.867 31.867-83.6 31.867-115.467 0l-31.2-31.2v225.867c0 47.067-38.267 85.333-85.333 85.333h-85.333v42.667h-42.667v-42.667h-85.333v42.667h-42.667v-42.667h-85.333v42.667h-42.667v-42.667h-85.333v42.667h-42.667v-42.667h-85.333c-47.067 0-85.333-38.267-85.333-85.333v-810.667c0-47.067 38.267-85.333 85.333-85.333h597.333c47.067 0 85.333 38.267 85.333 85.333v353.867l146.667 146.667c15.467 15.467 24 36 24 57.733zM672.133 254.267l-68.933-13.733 13.733 68.933 257.733 257.733 55.2-55.2-257.733-257.733zM170.667 21.333v810.667h85.333v-85.333h42.667v85.333h85.333v-85.333h42.667v85.333h85.333v-85.333h42.667v85.333h85.333v-85.333h42.667v85.333h85.333v-311.2l-185.733-185.733c-2.933-2.933-5.067-6.8-5.867-10.933l-21.333-106.667c-1.333-6.933 0.8-14.267 5.867-19.333 4-4 9.467-6.267 15.067-6.267 1.333 0 2.8 0.133 4.133 0.4l106.667 21.333c4.133 0.8 7.867 2.8 10.933 5.867l70.267 70.267v-268.4h-597.333zM969.867 552l-9.867-9.867-55.2 55.2 9.867 9.867c15.2 15.2 40 15.2 55.2 0 7.333-7.333 11.467-17.2 11.467-27.6s-4.133-20.133-11.467-27.6zM256 405.333h256v-42.667h-256v42.667zM256 277.333h213.333v-42.667h-213.333v42.667zM256 192h256v-42.667h-256v42.667z" />
<glyph unicode="&#xe931;" glyph-name="quill" data-tags="quill" d="M975.6 895.867c-7.6 13.333-21.6 21.467-36.933 21.467-98.933 0-204.933-21.467-306.267-61.867-105.067-42-204.933-104.533-288.8-180.8-92.267-84-164.933-183.2-216.133-294.667-56.267-122.933-84.8-258-84.8-401.333h85.333c0 97.6 14 184.267 37.067 260.8 48.267 81.067 90 81.333 164.533 81.867 70.133 0.533 157.333 1.2 266.4 72 120.4 78.133 244.533 228.667 379.467 459.867 7.733 13.2 7.867 29.467 0.133 42.667zM777.6 702.267c-54-4.8-164-22.4-256.533-87.467l-17.467-12.267 24.533-34.933 17.467 12.267c65.467 46 142.533 66 196.667 74.8-67.067-86.933-130.933-149.6-192.667-189.733-88.133-57.2-155.467-57.733-220.533-58.267-32.267-0.267-64.933-0.533-97.067-8.533 50.4 91.2 112.267 161.467 169.2 213.333 130.4 118.8 297.467 196.4 459.333 215.733-28.267-45.467-55.867-87.2-82.933-124.933z" />
<glyph unicode="&#xe932;" glyph-name="edit3" data-tags="edit3" d="M1017.733 939.6c-7.733 12.667-21.6 20.4-36.4 20.4-89.867 0-186-20.533-278-59.467-44.4-18.8-87.867-41.867-129.2-68.533h-552.8c-11.733 0-21.333-9.6-21.333-21.333v-853.333c0-11.733 9.6-21.333 21.333-21.333h853.333c11.733 0 21.333 9.6 21.333 21.333v725.067c40.533 62.133 81.467 133.733 123.333 215.467 6.8 13.2 6.133 29.067-1.6 41.733zM853.333-21.333h-810.667v810.667h471.067c-25.067-19.333-49.067-40-71.733-61.867-83.333-80.267-148.933-174.933-194.933-281.333-50.667-117.067-76.4-245.6-76.4-382.133h85.333c0 92.533 12.533 174.8 33.067 247.333 32.933 52.667 65.2 52.267 127.6 51.467 64-0.933 151.733-2 255.2 69.333 60.133 41.6 120.267 103.867 181.467 188.133v-641.6zM835.067 745.067c-43.067-5.467-157.867-29.333-273.2-131.733l-16-14.133 28.4-31.867 16 14.133c68.267 60.667 136.267 90.8 181.333 105.333 11.067 3.6 21.467 6.4 30.667 8.667-61.333-88.933-120.667-152.8-178.933-193.067-81.067-56-144.267-55.067-205.467-54.267-26.8 0.4-52.533 0.667-78-3.733 46.933 96 106.8 168.933 161.467 221.6 115.6 111.467 263.333 184.667 406.667 203.733-24.667-45.467-49.067-86.933-72.933-124.667z" />
<glyph unicode="&#xe933;" glyph-name="blog" data-tags="blog" d="M456.8 563.467c-14.533 14.533-37.2 16.667-54.133 5.067-60-40.8-160-97.333-244.267-122.4-16.533-4.933-28.533-19.333-30.267-36.533-9.867-98.267-60-283.733-123.733-412-8.133-16.4-4.933-36.133 8-49.2 8.133-8.133 19.067-12.533 30.133-12.533 6.4 0 12.933 1.467 18.933 4.4 128.267 63.733 313.733 113.867 412 123.733 17.2 1.733 31.6 13.733 36.533 30.267 25.333 84.4 81.867 184.4 122.667 244.4 11.467 16.933 9.333 39.6-5.067 54.133l-170.8 170.667zM437.2 145.6c-52.267-7.6-117.867-22.4-184.8-42.133-27.333-8-54.267-16.667-80.267-25.6l162.933 162.933c8.4-4 17.733-6.267 27.6-6.267 35.333 0 64 28.667 64 64s-28.667 64-64 64-64-28.667-64-64c0-9.867 2.267-19.2 6.267-27.6l-162.933-162.8c9.067 26 17.6 52.933 25.6 80.267 19.6 66.933 34.533 132.533 42.133 184.8 73.467 25.867 152.933 68.667 211.333 105.467l121.733-121.733c-36.933-58.4-79.733-137.733-105.6-211.333zM341.333 298.667c0 11.733 9.6 21.333 21.333 21.333s21.333-9.6 21.333-21.333-9.6-21.333-21.333-21.333-21.333 9.6-21.333 21.333zM512 704v-42.667c117.6 0 213.333-95.733 213.333-213.333h42.667c0 141.2-114.8 256-256 256zM983.733 647.333c-25.733 60.933-62.667 115.733-109.733 162.8s-101.733 83.867-162.8 109.733c-63.067 26.533-130.133 40.133-199.2 40.133v-42.667c258.8 0 469.333-210.533 469.333-469.333h42.667c0 69.067-13.6 136.133-40.267 199.333zM512 832v-42.667c188.267 0 341.333-153.067 341.333-341.333h42.667c0 102.533-40 199.067-112.533 271.467-72.4 72.533-168.933 112.533-271.467 112.533z" />
<glyph unicode="&#xe934;" glyph-name="pen2" data-tags="pen2" d="M1017.733 612.4l-341.333 341.333c-4 4-9.467 6.267-15.067 6.267-35.333 0-64-28.667-64-64v-116.533c-99.733-29.733-202.533-60-305.2-76-21.467-3.333-36.933-22.267-36.133-43.867 5.6-137.867-55.733-319.467-187.467-554.533-16.267-3.2-31.467-11.2-43.733-23.333-33.333-33.333-33.333-87.467 0-120.8 16.667-16.667 38.533-24.933 60.4-24.933s43.733 8.267 60.4 24.933c12.133 12.133 20.133 27.333 23.333 43.733 235.2 131.733 416.667 193.067 554.667 187.333 21.733-0.8 40.533 14.667 43.867 36.133 16 102.667 46.267 205.6 76 305.2h116.533c35.333 0 64 28.667 64 64 0 5.6-2.267 11.067-6.267 15.067zM689.333 277.467c-83.333-2.667-179.067-24.533-285.067-65.067-55.6-21.333-114.4-47.733-178-80.133l242.4 242.4c12.667-7.467 27.467-11.867 43.333-11.867 47.067 0 85.333 38.267 85.333 85.333s-38.267 85.333-85.333 85.333c-47.067 0-85.333-38.267-85.333-85.333 0-15.867 4.267-30.667 11.867-43.333l-242.4-242.533c32.4 63.6 58.933 122.4 80.133 178 40.667 106 62.4 201.733 65.067 285.067 97.6 18 192.933 46.267 285.6 74l136.267-136.267c-27.6-92.667-55.867-188-73.867-285.6zM469.333 448c0 23.467 19.2 42.667 42.667 42.667s42.667-19.2 42.667-42.667c0-23.467-19.2-42.667-42.667-42.667s-42.667 19.2-42.667 42.667zM960 576h-88.933l-231.067 231.067v88.933c0 9.067 5.733 16.933 13.867 20l326.133-326.133c-3.067-8.133-10.933-13.867-20-13.867z" />
<glyph unicode="&#xe935;" glyph-name="pen-plus" data-tags="pen-plus" d="M827.333 478.667c5.467 18.533 10.933 36.933 16.133 54.667h116.533c35.333 0 64 28.667 64 64 0 5.6-2.267 11.067-6.267 15.067l-341.333 341.333c-4 4-9.467 6.267-15.067 6.267-35.333 0-64-28.667-64-64v-116.533c-99.733-29.733-202.533-60-305.2-76-21.467-3.333-36.933-22.267-36.133-43.867 5.6-137.867-55.733-319.467-187.467-554.533-16.267-3.2-31.467-11.2-43.733-23.333-16-16.267-24.933-37.6-24.933-60.4s8.933-44.267 24.933-60.4c16.667-16.667 38.533-24.933 60.4-24.933s43.733 8.267 60.4 24.933c12.133 12.133 20.133 27.333 23.333 43.733 116.667 65.467 218 112.533 308.133 143.333 29.467-121.467 139.2-212 269.6-212 152.933 0 277.333 124.4 277.333 277.333 0 124.933-82.933 230.8-196.667 265.333zM653.867 916l326.133-326.133c-3.067-8.133-10.8-13.867-20-13.867h-88.933l-231.067 231.067v88.933c0 9.067 5.733 16.933 13.867 20zM276.267 340.267c40.667 106 62.4 201.733 65.067 285.067 97.6 18 192.933 46.267 285.6 74l136.267-136.267c-6.933-23.2-14.267-47.6-21.333-72.4-53.2-0.933-102.667-16.8-144.533-43.733 0 0.4 0 0.667 0 1.067 0 47.067-38.267 85.333-85.333 85.333s-85.333-38.267-85.333-85.333c0-15.867 4.267-30.667 11.867-43.333l-242.4-242.4c32.4 63.6 58.933 122.4 80.133 178zM470.267 235.6c-74-23.733-154.667-58-244-103.467l242.4 242.4c12.667-7.467 27.467-11.867 43.333-11.867 0.4 0 0.667 0 1.067 0-23.867-37.2-39.2-80.533-42.8-127.067zM512 405.333c-23.467 0-42.667 19.2-42.667 42.667s19.2 42.667 42.667 42.667c23.467 0 42.667-19.2 42.667-42.667s-19.2-42.667-42.667-42.667zM746.667-21.333c-129.333 0-234.667 105.333-234.667 234.667s105.333 234.667 234.667 234.667 234.667-105.333 234.667-234.667-105.333-234.667-234.667-234.667zM768 320h-42.667v-85.333h-85.333v-42.667h85.333v-85.333h42.667v85.333h85.333v42.667h-85.333z" />
<glyph unicode="&#xe936;" glyph-name="pen-minus" data-tags="pen-minus" d="M827.333 478.667c5.467 18.533 10.933 36.933 16.133 54.667h116.533c35.333 0 64 28.667 64 64 0 5.6-2.267 11.067-6.267 15.067l-341.333 341.333c-4 4-9.467 6.267-15.067 6.267-35.333 0-64-28.667-64-64v-116.533c-99.733-29.733-202.533-60-305.2-76-21.467-3.333-36.933-22.267-36.133-43.867 5.6-137.867-55.733-319.467-187.467-554.533-16.267-3.2-31.467-11.2-43.733-23.333-16-16.267-24.933-37.6-24.933-60.4s8.933-44.267 24.933-60.4c16.667-16.667 38.533-24.933 60.4-24.933s43.733 8.267 60.4 24.933c12.133 12.133 20.133 27.333 23.333 43.733 116.667 65.467 218 112.533 308.133 143.333 29.467-121.467 139.2-212 269.6-212 152.933 0 277.333 124.4 277.333 277.333 0 124.933-82.933 230.8-196.667 265.333zM653.867 916l326.133-326.133c-3.067-8.133-10.8-13.867-20-13.867h-88.933l-231.067 231.067v88.933c0 9.067 5.733 16.933 13.867 20zM276.267 340.267c40.667 106 62.4 201.733 65.067 285.067 97.6 18 192.933 46.267 285.6 74l136.267-136.267c-6.933-23.2-14.267-47.6-21.333-72.4-53.2-0.933-102.667-16.8-144.533-43.733 0 0.4 0 0.667 0 1.067 0 47.067-38.267 85.333-85.333 85.333s-85.333-38.267-85.333-85.333c0-15.867 4.267-30.667 11.867-43.333l-242.4-242.4c32.4 63.6 58.933 122.4 80.133 178zM470.267 235.6c-74-23.733-154.667-58-244-103.467l242.4 242.4c12.667-7.467 27.467-11.867 43.333-11.867 0.4 0 0.667 0 1.067 0-23.867-37.2-39.2-80.533-42.8-127.067zM512 405.333c-23.467 0-42.667 19.2-42.667 42.667s19.2 42.667 42.667 42.667c23.467 0 42.667-19.2 42.667-42.667s-19.2-42.667-42.667-42.667zM746.667-21.333c-129.333 0-234.667 105.333-234.667 234.667s105.333 234.667 234.667 234.667 234.667-105.333 234.667-234.667-105.333-234.667-234.667-234.667zM640 234.667h213.333v-42.667h-213.333v42.667z" />
<glyph unicode="&#xe937;" glyph-name="pen-drawing" data-tags="pen-drawing" d="M1011.467 606.133l-170.667 170.667c-14.533 14.533-37.2 16.667-54.133 5.067-59.867-40.667-159.733-97.067-244.267-122.4-16.533-4.933-28.533-19.333-30.267-36.533-10-98.267-60.133-283.733-123.733-412-4.533-9.2-5.6-19.333-3.333-28.8-34.933-32.8-82.4-56.8-134.667-68.133-52-11.2-103.867-8.533-142.267 7.333-29.867 12.4-65.467 38.533-65.467 93.2 0 64 53.733 153.067 105.733 239.067 70.533 116.8 137.067 227.067 94 303.333-14.267 25.333-40 44.4-76.4 56.667-36.4 12.4-83.733 18.4-144.667 18.4h-21.333v-42.667h21.333c102.133 0 164-18 184-53.333 30.8-54.667-32.267-159.2-93.467-260.267-54.933-91.2-111.867-185.333-111.867-261.2 0-60.933 32.667-108.133 91.867-132.667 28.133-11.733 60.933-17.6 95.733-17.6 23.2 0 47.467 2.667 71.867 8 59.733 12.933 114.533 40.8 154.933 78.8 4-1.2 8.133-1.733 12.267-1.733 6.4 0 12.933 1.467 18.933 4.4 128.267 63.733 313.733 113.867 412 123.733 17.2 1.733 31.6 13.733 36.533 30.267 25.333 84.533 81.733 184.4 122.4 244.267 11.6 16.933 9.467 39.733-5.067 54.133zM821.2 358.933c-52.267-7.6-117.867-22.4-184.8-42.133-27.333-8-54.267-16.667-80.267-25.6l163.067 163.067c8.4-4 17.733-6.267 27.6-6.267 35.333 0 64 28.667 64 64s-28.667 64-64 64-64-28.667-64-64c0-9.867 2.267-19.2 6.267-27.6l-163.2-162.933c9.067 26 17.6 52.933 25.6 80.267 19.6 66.933 34.533 132.533 42.133 184.8 73.733 26 153.067 68.667 211.333 105.467l121.733-121.733c-36.8-58.267-79.467-137.6-105.467-211.333zM725.333 512c0 11.733 9.6 21.333 21.333 21.333s21.333-9.6 21.333-21.333-9.6-21.333-21.333-21.333-21.333 9.6-21.333 21.333z" />
<glyph unicode="&#xe938;" glyph-name="bezier-curve" data-tags="bezier-curve" d="M960 234.667c-9.867 0-19.2-2.267-27.6-6.267l-186 186c-17.067 30-38 59.467-63.733 89.867v93.067c0 11.733-9.6 21.333-21.333 21.333h-93.2c-30.267 25.733-59.733 46.8-89.867 63.733l-185.867 186c4 8.4 6.267 17.733 6.267 27.6 0 35.333-28.667 64-64 64s-64-28.667-64-64 28.667-64 64-64c9.867 0 19.2 2.267 27.6 6.267l113.067-113.067c-52.533 14.667-111.6 21.467-183.333 21.467h-21.333v21.333c0 11.733-9.6 21.333-21.333 21.333h-128c-11.733 0-21.333-9.6-21.333-21.333v-128c0-11.733 9.6-21.333 21.333-21.333h128c11.733 0 21.333 9.6 21.333 21.333v21.333h21.333c142.933 0 226.933-28 320-106.933v-85.067c0-11.733 9.6-21.333 21.333-21.333h85.067c78.933-93.067 106.933-177.067 106.933-320v-21.333h-21.333c-11.733 0-21.333-9.6-21.333-21.333v-128c0-11.733 9.6-21.333 21.333-21.333h128c11.733 0 21.333 9.6 21.333 21.333v128c0 11.733-9.6 21.333-21.333 21.333h-21.333v21.333c0 71.733-6.8 130.8-21.467 183.2l113.067-113.067c-4-8.4-6.267-17.733-6.267-27.6 0-35.333 28.667-64 64-64s64 28.667 64 64-28.667 64.133-64 64.133zM128 661.333h-85.333v85.333h85.333v-85.333zM810.667-21.333h-85.333v85.333h85.333v-85.333zM234.667 874.667c-11.733 0-21.333 9.6-21.333 21.333s9.6 21.333 21.333 21.333 21.333-9.6 21.333-21.333-9.6-21.333-21.333-21.333zM554.667 576h85.333v-85.333h-85.333v85.333zM960 149.333c-11.733 0-21.333 9.6-21.333 21.333s9.6 21.333 21.333 21.333 21.333-9.6 21.333-21.333-9.6-21.333-21.333-21.333z" />
<glyph unicode="&#xe939;" glyph-name="bezier-curve2" data-tags="bezier-curve2" d="M1002.667 106.667h-21.333v430.267c24.8 8.8 42.667 32.533 42.667 60.4 0 35.333-28.667 64-64 64s-64-28.667-64-64c0-27.867 17.867-51.6 42.667-60.4v-256.533c-25.333 47.467-62.133 86.133-110.667 116.4-87.067 54.4-199.733 74.133-308.533 93.2-105.467 18.4-205.2 35.867-278.133 81.467-72.4 45.2-108.533 114.8-112.8 217.867h20.8c11.733 0 21.333 9.6 21.333 21.333v128c0 11.733-9.6 21.333-21.333 21.333h-128c-11.733 0-21.333-9.6-21.333-21.333v-128c0-11.733 9.6-21.333 21.333-21.333h21.333v-430.267c-24.8-8.8-42.667-32.533-42.667-60.4 0-35.333 28.667-64 64-64s64 28.667 64 64c0 27.867-17.867 51.6-42.667 60.4v256.533c25.333-47.467 62.133-86.133 110.667-116.4 87.067-54.4 199.733-74.133 308.533-93.2 105.467-18.4 205.2-35.867 278.133-81.467 72.4-45.2 108.533-114.8 112.8-217.867h-20.8c-11.733 0-21.333-9.6-21.333-21.333v-128c0-11.733 9.6-21.333 21.333-21.333h128c11.733 0 21.333 9.6 21.333 21.333v128c0 11.733-9.6 21.333-21.333 21.333zM42.667 917.333h85.333v-85.333h-85.333v85.333zM64 277.333c-11.733 0-21.333 9.6-21.333 21.333s9.6 21.333 21.333 21.333 21.333-9.6 21.333-21.333-9.6-21.333-21.333-21.333zM960 618.667c11.733 0 21.333-9.6 21.333-21.333s-9.6-21.333-21.333-21.333-21.333 9.6-21.333 21.333 9.6 21.333 21.333 21.333zM981.333-21.333h-85.333v85.333h85.333v-85.333z" />
<glyph unicode="&#xe93a;" glyph-name="brush" data-tags="brush" d="M1011.467 904.8c-14.667 14.667-37.6 16.667-54.533 4.8-1.2-0.8-124.267-86.533-250.933-176.267-258.933-183.333-280.133-204.533-288.133-212.533-47.467-47.467-90.133-151.867-94.8-163.6-3.467-8.8-4-18.133-1.6-26.933l-53.2-53.2c-91.733-4.667-131.733-80.933-167.2-148.4-25.333-48.133-49.2-93.467-87.6-108.933-9.6-3.733-15.067-13.733-13.067-23.733s10.667-17.333 20.933-17.333c108 0 198 16.4 260.267 47.6 63.6 31.867 98.8 78.533 102.133 135.333l53.2 53.2c3.6-0.933 7.333-1.467 11.067-1.467 5.333 0 10.667 0.933 15.867 3.067 11.733 4.667 116.133 47.333 163.6 94.8 8 8 29.2 29.2 212.667 288.133 89.733 126.667 175.333 249.733 176.267 250.933 11.733 16.933 9.733 40-4.933 54.533zM320 268.4l27.6 27.6 55.2-55.2-27.733-27.467c-10.667 24.533-30.533 44.4-55.067 55.067zM262.4 64.4c-43.867-21.867-104-35.733-176.267-40.933 20.667 24.667 36.8 55.333 52.533 85.333 34.133 64.8 66.267 125.867 138.667 125.867 35.333 0 64-28.667 64-64 0-44.4-26.533-80.133-78.933-106.267zM567.2 371.467c-22.933-22.933-74.533-49.067-109.467-64.933l-44.4 44.533c15.733 34.933 41.867 86.4 64.933 109.467 20.133 20.133 173.733 130.4 329.067 240-109.733-155.333-220.133-308.933-240.133-329.067z" />
<glyph unicode="&#xe93b;" glyph-name="brush2" data-tags="brush2" d="M1020.4 523.733c-24.267 36.667-83.467 47.6-118.8 50.8l36.4 145.6c2 8.133-0.8 16.667-7.333 21.867s-15.467 6.133-22.933 2.4l-126-63.067 24.667 80.4c1.733 5.467 1.067 11.467-1.733 16.533-41.6 75.467-115.733 136.133-220.4 180-9.467 4-20.4 0.667-26-7.867-0.8-1.067-68.933-102.933-142.8-183.6-14 3.333-29.333-0.4-40.267-11.333l-106.667-106.667c-9.867-9.867-14.267-24-11.867-37.867l38.267-209.467-242.533-202.4c-0.133-0.133-0.4-0.267-0.533-0.533-32.933-28.533-51.867-69.733-51.867-113.2 0-39.733 15.467-77.2 43.6-105.467 0.133-0.133 0.133-0.133 0.267-0.267 28.267-28.133 65.733-43.6 105.467-43.6 43.467 0 84.667 18.933 113.2 51.867 0.133 0.133 0.267 0.4 0.533 0.533l202.533 242.533 209.467-38.267c13.733-2.533 27.867 1.867 37.867 11.867l106.667 106.667c11.2 11.2 14.933 27.2 10.933 41.467 80.4 77.067 182.267 140.533 183.467 141.2 4.933 3.067 8.4 8 9.6 13.6s0 11.467-3.2 16.267zM456.4 319.333c-15.067 2.8-30.533-2.8-40.4-14.667l-218.267-261.333c-12.267-14-29.867-22-48.4-22-17.067 0-33.067 6.667-45.333 18.667-12 12.133-18.667 28.267-18.667 45.333 0 18.533 8 36.133 22.133 48.4l261.333 218.267c11.733 9.867 17.333 25.333 14.667 40.4l-34.4 188.4 296-296-188.667 34.533zM688.933 301.2l-323.733 323.733 40.133 40.133 323.6-323.733-40-40.133zM804.4 386.667l-354.533 354.533c58.667 64.667 112.133 139.6 133.867 170.8 83.6-37.733 143.733-87.067 179.2-146.667l-36.667-119.2c-2.533-8.133 0.133-17.067 6.667-22.533s15.733-6.667 23.333-2.8l129.2 64.533-31.467-125.733c-1.6-6.4-0.133-13.067 3.867-18.267s10.267-8.267 16.8-8.267c22.4 0 66.4-4.933 92.8-18.8-35.467-23.2-103.733-71.2-163.067-127.6zM170.667 85.333c0-11.782-9.551-21.333-21.333-21.333s-21.333 9.551-21.333 21.333c0 11.782 9.551 21.333 21.333 21.333s21.333-9.551 21.333-21.333z" />
<glyph unicode="&#xe93c;" glyph-name="paint-roller" data-tags="paint-roller" d="M896 832h-42.667v42.667c0 47.067-38.267 85.333-85.333 85.333h-554.667c-47.067 0-85.333-38.267-85.333-85.333v-128c0-47.067 38.267-85.333 85.333-85.333h554.667c47.067 0 85.333 38.267 85.333 85.333v42.667h42.667c23.467 0 42.667-19.2 42.667-42.667v-128c0-23.467-19.2-42.667-42.667-42.667h-341.333c-47.067 0-85.333-38.267-85.333-85.333v-2.133c-48.667-9.867-85.333-53.067-85.333-104.533v-341.333c0-58.8 47.867-106.667 106.667-106.667s106.667 47.867 106.667 106.667v341.333c0 51.467-36.667 94.667-85.333 104.533v2.133c0 23.467 19.2 42.667 42.667 42.667h341.333c47.067 0 85.333 38.267 85.333 85.333v128c0 47.067-38.267 85.333-85.333 85.333zM170.667 746.667v128c0 23.467 19.2 42.667 42.667 42.667h554.667c23.467 0 42.667-19.2 42.667-42.667v-42.667c0-23.467-19.2-42.667-42.667-42.667-18.933 0-28 10.533-43.733 30.8-17.867 23.067-42.267 54.533-94.933 54.533-44.4 0-65.733-27.467-82.933-49.6-17.733-22.8-29.067-35.733-55.733-35.733-35.733 0-60.133 12-83.733 23.467-28.267 13.867-57.467 28.133-95.2 12.133-24.133-10.133-39.2-21.867-47.6-36.667-8.133-14.267-8.133-28.533-8.133-40v-1.6c0-23.467-19.2-42.667-42.667-42.667s-42.667 19.2-42.667 42.667zM298.667 746.667v1.733c0 9.2 0.133 14.667 2.533 18.933 3.333 6 12.8 12.267 27.067 18.4 19.067 8 32.933 2.133 59.867-11.2 25.333-12.4 56.8-27.867 102.533-27.867 48.933 0 71.333 28.933 89.467 52.267 16.933 21.733 26.8 33.067 49.2 33.067 31.733 0 44.8-16.8 61.2-38 16.4-21.067 36.8-47.333 77.467-47.333h-469.333zM512 42.667c0-11.733-9.6-21.333-21.333-21.333s-21.333 9.6-21.333 21.333v341.333c0 11.733 9.6 21.333 21.333 21.333s21.333-9.6 21.333-21.333v-341.333zM213.2 557.6c-1.467 10.533-10.533 18.4-21.2 18.4s-19.733-7.867-21.2-18.4c-1.6-11.2-8.933-26.4-16.933-42.533-12.133-24.8-26-52.933-26-82.267 0-38.667 28.667-70.133 64-70.133s64 31.467 64 70.133c0 29.333-13.733 57.467-26 82.267-7.733 16.133-15.2 31.2-16.667 42.533zM192 405.333c-11.6 0-21.333 12.533-21.333 27.467 0 19.2 10.8 41.467 21.333 62.933 10.533-21.467 21.333-43.6 21.333-62.933 0-14.933-9.733-27.467-21.333-27.467z" />
<glyph unicode="&#xe93d;" glyph-name="spray" data-tags="spray" d="M547.6 568.133c4.533 8.8 7.067 18.667 7.067 29.2 0 35.333-28.667 64-64 64h-64v42.667h21.333c11.733 0 21.333 9.6 21.333 21.333v170.667c0 11.733-9.6 21.333-21.333 21.333h-85.333c-5.6 0-11.067-2.267-15.067-6.267l-85.333-85.333c-4-4-6.267-9.467-6.267-15.067v-85.333c0-11.733 9.6-21.333 21.333-21.333h21.333v-42.667h-64c-35.333 0-64-28.667-64-64 0-10.533 2.533-20.4 7.067-29.2-29.333-13.467-49.733-43.067-49.733-77.467v-469.333c0-47.067 38.267-85.333 85.333-85.333h298.667c47.067 0 85.333 38.267 85.333 85.333v469.333c0 34.4-20.4 64-49.733 77.467zM298.667 801.867l72.8 72.8h55.2v-42.667h-42.667v-42.667h42.667v-42.667h-128v55.2zM341.333 704h42.667v-42.667h-42.667v42.667zM234.667 618.667h256c11.733 0 21.333-9.6 21.333-21.333s-9.6-21.333-21.333-21.333h-256c-11.733 0-21.333 9.6-21.333 21.333s9.6 21.333 21.333 21.333zM512 21.333h-298.667l-0.133 469.333c0 0 0 0 0.133 0h213.333v-298.667h42.667v298.667h42.667v-469.333zM554.667 789.333h-42.667v42.667h42.667v-42.667zM597.333 832h42.667v42.667h-42.667v-42.667zM597.333 746.667h42.667v42.667h-42.667v-42.667zM682.667 704h42.667v42.667h-42.667v-42.667zM682.667 789.333h42.667v42.667h-42.667v-42.667zM682.667 874.667h42.667v42.667h-42.667v-42.667zM768 917.333h42.667v42.667h-42.667v-42.667zM768 832h42.667v42.667h-42.667v-42.667zM768 746.667h42.667v42.667h-42.667v-42.667zM768 661.333h42.667v42.667h-42.667v-42.667zM853.333 960v-42.667h42.667v42.667h-42.667zM853.333 832h42.667v42.667h-42.667v-42.667zM853.333 746.667h42.667v42.667h-42.667v-42.667zM853.333 661.333h42.667v42.667h-42.667v-42.667z" />
</font>
</defs>
</svg>
